#VERSION:0.83;
#TITLE:pinky up;
#SUBTITLE:;
#ARTIST:KATSEYE;
#TITLETRANSLIT:;
#SUBTITLETRANSLIT:;
#ARTISTTRANSLIT:;
#GENRE:;
#ORIGIN:;
#CREDIT:;
#BANNER:;
#BACKGROUND:;
#PREVIEWVID:;
#JACKET:;
#CDIMAGE:;
#DISCIMAGE:;
#LYRICSPATH:;
#CDTITLE:;
#MUSIC:pinky up.ogg;
#OFFSET:0.000000;
#SAMPLESTART:100.059883;
#SAMPLELENGTH:12.000000;
#SELECTABLE:YES;
#BPMS:0.000=152.000;
#STOPS:0.000=0.300;
#DELAYS:;
#WARPS:;
#TIMESIGNATURES:0.000=4=4;
#TICKCOUNTS:0.000=4;
#COMBOS:0.000=1;
#SPEEDS:0.000=1.000=0.000=0;
#SCROLLS:0.000=1.000;
#FAKES:;
#LABELS:0.000=Song Start;
#BGCHANGES:;
#KEYSOUNDS:;
#ATTACKS:
;

//---------------dance-single - ----------------
#NOTEDATA:;
#CHARTNAME:;
#STEPSTYPE:dance-single;
#DESCRIPTION:;
#CHARTSTYLE:;
#DIFFICULTY:Hard;
#METER:15;
#RADARVALUES:0.727725,0.776998,0.045483,0.037902,0.454828,672.000000,666.000000,6.000000,5.000000,0.000000,0.000000,0.000000,0.000000,0.000000,0.727725,0.776998,0.045483,0.037902,0.454828,672.000000,666.000000,6.000000,5.000000,0.000000,0.000000,0.000000,0.000000,0.000000;
#CREDIT:;
#NOTES:
// measure 0
0000
0000
0000
0000
,  // measure 1
0000
0000
0000
0000
,  // measure 2
0010
0000
0001
0100
0010
0000
0001
0100
0010
0000
0001
0100
1000
0000
0001
0100
,  // measure 3
0010
0000
0001
0100
0010
0000
0001
0100
0001
0000
0100
0010
0001
0000
1000
0000
,  // measure 4
0100
0000
0001
0100
0010
0000
0001
0100
0010
0000
0001
0100
0010
0000
0001
0100
,  // measure 5
1000
0000
0001
0100
0010
0000
0001
0100
0001
0000
0100
0010
0001
0000
0100
0000
,  // measure 6
1000
0000
0010
0001
0100
0000
0010
1000
0001
0000
0001
0100
0010
0000
0001
0100
,  // measure 7
0010
0000
0001
0100
1000
0000
0001
0100
0010
0000
0001
0100
0010
0000
0001
0000
,  // measure 8
0100
0000
0001
0100
0010
0000
0001
0100
0010
0000
0001
0100
1000
0000
0001
0100
,  // measure 9
0010
0000
0001
0100
1000
0000
0001
0100
0010
0000
0001
0100
0010
0000
0001
0000
,  // measure 10
0100
0000
0001
0000
0100
0000
0010
0001
,  // measure 11
0100
0001
1000
0100
0000
0010
0100
0001
,  // measure 12
0000
0000
0010
0000
0100
0000
0010
0100
,  // measure 13
0001
0100
0000
0010
0000
0001
0100
1000
,  // measure 14
0000
0000
0100
0000
0001
0000
0100
0010
,  // measure 15
0100
0000
0001
0010
0000
0010
0000
0001
,  // measure 16
0010
0000
0100
0001
1000
0000
0100
0001
0010
0000
0010
0001
0100
0000
0010
0001
,  // measure 17
0100
0000
0010
0100
0001
0000
0100
1000
0001
0000
0100
0010
0001
0000
0100
0000
,  // measure 18
1000
0000
0100
0000
0010
0000
0001
0100
,  // measure 19
1000
0010
0001
0100
0000
0010
0100
0001
,  // measure 20
0000
0000
0001
0000
0100
0000
0010
0001
,  // measure 21
0100
0001
0100
1000
0000
0001
0100
1000
,  // measure 22
0000
0000
0100
0000
0010
0000
0001
0100
,  // measure 23
1000
0000
0010
0001
0000
0100
0000
0010
,  // measure 24
0010
0000
0001
0100
0010
0000
0001
0100
1000
0000
0001
0100
0010
0000
0001
0100
,  // measure 25
0010
0000
0001
0100
1000
0000
0001
0100
0010
0000
0001
0100
0010
0000
0001
0100
,  // measure 26
1000
0000
0001
0100
0010
0000
0001
0100
0010
0000
0001
0100
1000
0000
0001
0100
,  // measure 27
0010
0000
0001
0100
0010
0000
0001
0100
0010
0000
0001
0100
1000
0000
0010
0001
,  // measure 28
0100
0000
0010
0001
0100
0000
0010
0001
0100
0000
1000
0100
0010
0000
0001
0100
,  // measure 29
0010
0000
0001
0100
1000
0000
0001
0100
0010
0000
0001
0100
0010
0000
0001
0100
,  // measure 30
1000
0000
0001
0100
0010
0000
0001
0100
0010
0000
0001
0100
0010
0000
0001
0100
,  // measure 31
1000
0000
0001
0100
0010
0000
0001
0100
0010
0000
0001
0100
0010
0000
0001
0100
,  // measure 32
1000
0000
0000
0000
0100
0000
0100
0000
0100
0000
0100
0000
0100
0010
0000
0000
,  // measure 33
0100
0000
0010
0000
0010
0100
0001
0010
,  // measure 34
0100
0001
0010
0001
0100
0010
0001
1000
,  // measure 35
0001
0100
0010
0001
0100
0001
1000
0100
,  // measure 36
0100
0010
0001
0100
0001
0100
0010
0001
,  // measure 37
0100
0001
0100
0010
0001
1000
0001
0100
,  // measure 38
0010
0001
0100
0001
0100
1000
0100
0010
,  // measure 39
0100
0010
0001
1000
0001
0100
0010
0001
,  // measure 40
0100
0001
0100
0010
0001
1000
0001
0100
,  // measure 41
0020
0000
0000
0000
0030
0000
0000
0000
0100
0001
0100
0000
0010
0000
0100
0000
,  // measure 42
0100
0010
0001
0100
0001
0000
0100
1000
,  // measure 43
0001
0000
0000
0000
0100
0000
0010
0000
0100
0000
0000
0001
0010
0000
0000
0000
,  // measure 44
0010
0001
0010
0100
1000
0000
0001
0100
,  // measure 45
0010
0000
0000
0000
0100
0000
0010
0000
0100
0000
0000
0001
0010
0000
0100
0000
,  // measure 46
0001
0000
0000
1000
0000
0000
0100
0000
0001
0000
0000
0010
0000
0000
0001
0000
,  // measure 47
0100
0000
0000
0010
0000
0000
0001
0000
1000
0000
0000
0000
0000
0000
0100
0000
,  // measure 48
0010
0000
0000
0001
0000
0000
0100
0000
0010
0000
0000
0001
0000
0000
0100
0000
,  // measure 49
0010
0000
0000
0001
0000
0000
0100
0000
1000
0000
0100
0000
0001
0000
0100
0001
,  // measure 50
0010
0000
0100
0000
0001
0000
0010
0100
,  // measure 51
0001
0010
0000
0010
0000
0001
0100
1000
,  // measure 52
0100
0000
0100
0000
0010
0000
0100
0001
,  // measure 53
0100
1000
0000
0010
0000
0001
0100
0010
,  // measure 54
0000
0000
0010
0000
0001
0000
0100
1000
,  // measure 55
0000
0000
0100
0010
0000
0100
0000
0001
,  // measure 56
0000
0000
0000
0001
0100
0010
0001
1000
,  // measure 57
0001
0100
0010
0001
0100
0001
1000
0100
,  // measure 58
0010
0000
0100
0001
0010
0000
0100
0001
1000
0000
0100
0001
0010
0000
0100
0001
,  // measure 59
0100
0000
0010
0100
0001
0000
1000
0100
0001
0000
0010
0100
0001
0000
0010
0100
,  // measure 60
0001
0000
0010
0100
0001
0000
1000
0100
0001
0000
0010
0100
0001
0000
1000
0100
,  // measure 61
0001
0000
0010
0100
0001
0000
0010
0100
0001
0000
0010
0100
0010
0000
1000
0100
,  // measure 62
0001
0000
0010
0100
0001
0000
1000
0100
0001
0000
0010
0100
0001
0000
0010
0001
,  // measure 63
0100
0000
0010
0001
0100
0000
0010
0001
0100
0000
1000
0001
0100
0000
0010
0001
,  // measure 64
0100
0000
0000
0000
0010
0000
0010
0000
0010
0000
0010
0000
0010
0100
0000
0000
,  // measure 65
0010
0000
0100
0000
0001
0001
0001
0010
,  // measure 66
0100
0010
0010
0100
0010
0100
0010
0001
,  // measure 67
1000
0001
0100
0010
0001
0100
0001
0100
,  // measure 68
1000
0010
0001
0100
0001
0100
0010
0001
,  // measure 69
0100
1000
0100
0010
0001
0100
0001
0100
,  // measure 70
0010
0001
0100
0001
0100
0010
0001
1000
,  // measure 71
0001
0100
0010
0001
0100
0001
0100
0010
,  // measure 72
2002
3003
0220
0330
,  // measure 73
1001
0000
0000
0000
0110
0000
0000
0000
1001
0000
0000
0000
0110
0000
0100
0010
,  // measure 74
1000
0000
0100
0001
0010
0000
0100
0000
0010
0000
0100
0001
0010
0000
0100
0000
,  // measure 75
0010
0000
0100
0001
1000
0000
0010
0000
0001
0100
0010
0000
0001
0000
0100
0000
,  // measure 76
1000
0000
0100
0010
0100
0000
0001
0000
0010
0000
0100
0001
1000
0000
0100
0000
,  // measure 77
0001
0000
0010
0100
0001
0000
1000
0000
0100
0001
0010
0000
0100
0000
0010
0000
,  // measure 78
0100
0000
0001
1000
0100
0000
0001
0000
0010
0000
0001
0100
0010
0000
0001
0000
,  // measure 79
0010
0000
0100
0001
1000
0000
0100
0000
0010
0001
0100
0000
0010
0000
0001
0000
,  // measure 80
0100
0000
0001
0010
0100
0000
0001
0000
1000
0000
0001
0100
0010
0000
0001
0000
,  // measure 81
0100
0000
0010
0100
0001
0000
0100
0000
0010
0001
0100
0000
0010
0000
0100
0000
,  // measure 82
0001
0000
0000
0000
;
