#VERSION:0.83;
#TITLE:paw paw;
#SUBTITLE:;
#ARTIST:ILLIT;
#TITLETRANSLIT:;
#SUBTITLETRANSLIT:;
#ARTISTTRANSLIT:;
#GENRE:;
#ORIGIN:;
#CREDIT:;
#BANNER:;
#BACKGROUND:;
#PREVIEWVID:;
#JACKET:;
#CDIMAGE:;
#DISCIMAGE:;
#LYRICSPATH:;
#CDTITLE:;
#MUSIC:paw, paw!.ogg;
#OFFSET:0.000000;
#SAMPLESTART:100.059883;
#SAMPLELENGTH:12.000000;
#SELECTABLE:YES;
#BPMS:0.000=140.000,
124.000=120.000,
126.000=100.000,
128.000=140.000,
253.000=120.000,
256.000=110.000,
268.000=140.000;
#STOPS:0.000=0.300;
#DELAYS:;
#WARPS:;
#TIMESIGNATURES:0.000=4=4;
#TICKCOUNTS:0.000=4;
#COMBOS:0.000=1;
#SPEEDS:0.000=1.000=0.000=0;
#SCROLLS:0.000=1.000;
#FAKES:;
#LABELS:0.000=Song Start;
#BGCHANGES:;
#KEYSOUNDS:;
#ATTACKS:
;

//---------------dance-single - ----------------
#NOTEDATA:;
#CHARTNAME:;
#STEPSTYPE:dance-single;
#DESCRIPTION:;
#CHARTSTYLE:;
#DIFFICULTY:Hard;
#METER:15;
#RADARVALUES:0.696701,0.641595,0.000000,0.006672,0.510374,731.000000,731.000000,0.000000,1.000000,0.000000,0.000000,0.000000,0.000000,0.000000,0.696701,0.641595,0.000000,0.006672,0.510374,731.000000,731.000000,0.000000,1.000000,0.000000,0.000000,0.000000,0.000000,0.000000;
#CREDIT:;
#NOTES:
// measure 0
0000
0000
0000
0000
,  // measure 1
0000
0000
0000
0000
,  // measure 2
0100
0000
0010
0100
0000
0000
0001
1000
0100
0000
0001
0100
0001
0000
0100
0000
,  // measure 3
0010
0001
0100
0010
0100
0001
0010
0100
,  // measure 4
0001
0000
0010
0100
0000
0000
0001
1000
0100
0010
0100
0001
1000
0001
0010
0000
,  // measure 5
0010
0000
0100
0001
0010
0000
0100
0000
0010
0000
0100
0000
0001
0000
1000
0000
,  // measure 6
0001
0000
0010
0100
0000
0000
0001
0010
0100
0010
0100
0001
1000
0001
0010
0000
,  // measure 7
0100
0000
0010
0100
0001
0000
0010
0000
0000
0000
0100
0000
0001
0000
0010
0000
,  // measure 8
0100
0000
0010
0100
0000
0000
0001
1000
0100
0010
0100
0001
1000
0001
0010
0000
,  // measure 9
0100
0000
0001
0100
0010
0000
0001
0000
0100
0000
0010
0000
0001
0000
1000
0000
,  // measure 10
0100
0000
0010
0100
0000
0000
0001
1000
0100
0001
0100
0001
1000
0010
0100
0000
,  // measure 11
0001
0000
0010
0100
0001
0000
1000
0000
0010
0000
0001
0000
0100
0000
0010
0000
,  // measure 12
0100
0000
0010
0001
0000
0000
0100
0001
1000
0001
0010
0100
0001
0100
0001
0000
,  // measure 13
0010
0100
0001
1000
0100
0001
0010
0001
,  // measure 14
0100
0000
0010
0100
0000
0000
0001
1000
0100
0000
0010
0000
0100
0001
1000
0000
,  // measure 15
0100
0010
0001
0100
0000
1000
0000
0000
,  // measure 16
0010
0001
0100
0010
0001
0100
0001
0100
,  // measure 17
1000
0001
0010
0000
0010
0000
0100
0000
0001
0000
0100
0000
0010
0000
1000
0100
,  // measure 18
0001
0010
0100
0000
0010
0100
0001
0000
0100
0010
0100
0000
0010
0000
0001
0000
,  // measure 19
0100
0100
0010
0001
0100
0001
0100
0010
,  // measure 20
1000
0100
0001
0000
0001
0000
0010
0000
0100
0000
0001
0000
0100
0000
0010
0000
,  // measure 21
1000
0100
0001
0000
0100
0000
0010
0000
0100
0000
0001
0000
0100
0000
0010
0000
,  // measure 22
1000
0100
0001
0000
0010
0100
0001
0000
0100
0010
0100
0000
0001
0000
1000
0000
,  // measure 23
0100
0000
0100
0000
0010
0000
0001
0000
0100
0000
0010
0000
1000
0100
0001
0000
,  // measure 24
0010
0000
0001
0000
0100
0000
0000
0000
0000
0000
0000
0000
0100
0001
0100
0000
,  // measure 25
0010
0010
0001
0000
0000
0000
0010
0100
,  // measure 26
0001
0000
0000
0001
0100
0000
0000
0010
0100
0000
0000
0001
1000
0000
0000
0100
,  // measure 27
0010
0000
0000
0010
0001
0000
0000
0000
0000
0000
0000
0000
0010
0000
0001
0000
,  // measure 28
0100
0010
0100
0000
0010
0000
1000
0001
,  // measure 29
0100
0010
0001
0000
0100
0000
0100
0001
,  // measure 30
0100
0010
0001
1000
0001
0100
0001
0100
,  // measure 31
1000
0100
0001
0010
0100
0010
0100
0010
,  // measure 32
0001
0000
0000
0010
0100
0000
0001
1000
0100
0000
0010
0100
0001
1000
0001
0000
,  // measure 33
0010
0000
0100
0001
1000
0000
0100
0000
0001
0000
0100
0000
0010
0000
0001
0000
,  // measure 34
0100
0000
0010
0100
0000
0000
0001
1000
0100
0000
0010
0000
0100
0001
1000
0000
,  // measure 35
0100
0000
0010
0001
0010
0000
0001
0000
0100
0000
0001
0000
0010
0000
0001
0000
,  // measure 36
0100
0000
0010
0100
0000
0000
0010
0100
0001
1000
0001
0010
0100
0001
0010
0000
,  // measure 37
0100
0000
0010
0001
0001
0000
0100
0000
1000
0000
0010
0000
0001
0000
0100
0000
,  // measure 38
0010
0000
0100
0001
0000
0000
1000
0100
0001
0100
0001
1000
0010
0001
0100
0000
,  // measure 39
0010
0001
0100
0001
0000
0100
0000
0000
,  // measure 40
0100
0000
0010
0100
0000
0000
0010
0000
0100
0000
0001
1000
0100
0001
0010
0000
,  // measure 41
0100
0000
0010
0001
0100
0000
0010
0000
0001
0000
0010
0000
0001
0000
0100
0000
,  // measure 42
1000
0000
0010
0100
0000
0000
0001
1000
0100
0010
0100
0001
1000
0001
0010
0000
,  // measure 43
0100
0000
0010
0001
0100
0000
0010
0000
0001
0000
0100
0000
0001
0000
0100
0000
,  // measure 44
1000
0000
0001
0010
0000
0000
0001
0010
0100
0000
0100
0010
0001
0100
1000
0000
,  // measure 45
0010
0001
0100
0010
0001
0100
0001
0100
,  // measure 46
1000
0000
0010
0100
0000
0000
0001
1000
0100
0000
0010
0100
0001
1000
0001
0000
,  // measure 47
0100
0000
0010
0001
0100
0000
0010
0000
0000
0000
0100
0000
0000
0000
0000
0000
,  // measure 48
0100
0000
0010
0100
0001
0100
0001
0100
,  // measure 49
1000
0010
0001
0100
0001
0100
1000
0000
,  // measure 50
0010
0000
0001
0100
0010
0001
0100
0001
,  // measure 51
0100
0010
0001
0100
0001
0100
1000
0000
,  // measure 52
0010
0000
0001
0100
0010
0001
0100
0001
,  // measure 53
0100
0010
0001
0100
0001
0100
1000
0000
,  // measure 54
0100
0000
0010
0001
1000
0000
0100
0000
,  // measure 55
0010
0000
0001
0100
0001
1000
0100
0000
,  // measure 56
0010
0100
0010
0001
0100
0001
1000
0100
,  // measure 57
0001
0010
0100
0010
1000
0010
0100
0001
,  // measure 58
0100
0010
0001
0100
0001
0100
0010
0001
,  // measure 59
0100
0001
0100
0010
0001
0100
0001
0100
,  // measure 60
0010
0001
0100
0001
0100
0010
0001
1000
,  // measure 61
0001
0100
0010
0001
0100
0001
0100
0010
,  // measure 62
1000
0000
0100
0001
0010
0100
0001
0000
0010
0001
0100
0000
0010
0000
0100
0001
,  // measure 63
0010
0100
0002
0000
0000
0000
0003
0000
,  // measure 64
0100
0000
0001
0010
0000
0000
0010
0001
0100
0010
0001
0100
0001
0100
1000
0000
,  // measure 65
0010
0000
0100
0010
0001
0000
0100
0000
1000
0000
0010
0000
0001
0000
0100
0000
,  // measure 66
1000
0000
0010
0100
0000
0000
0010
0001
0100
0010
0001
1000
0001
0100
1000
0000
,  // measure 67
0100
0001
0100
0001
0000
0010
0000
0000
,  // measure 68
0100
0000
0010
0100
0000
0000
0010
0001
0100
0010
0001
0100
0001
0100
1000
0000
,  // measure 69
0100
0000
0010
0001
0100
0000
0001
0000
0010
0000
0010
0000
0001
0000
0100
0000
,  // measure 70
1000
0000
0010
0001
0000
0000
0010
0001
0100
0010
0001
1000
0001
0100
1000
0000
,  // measure 71
0100
0000
0010
0001
0100
0000
0010
0000
0001
0000
0100
0000
0001
0000
0100
0000
,  // measure 72
1000
0000
0010
0100
0000
0000
0001
0100
0010
0000
0100
0001
1000
0001
0010
0000
,  // measure 73
0100
0000
0010
0001
0100
0000
0010
0000
0001
0000
0100
0000
0001
0000
0100
0000
,  // measure 74
1000
0000
0010
0100
0000
0000
0001
1000
0100
0000
0010
0100
0001
1000
0001
0000
,  // measure 75
0100
0000
0010
0001
0010
0000
0100
0000
0000
0000
0100
0000
0000
0000
0000
0000
,  // measure 76
0010
0000
0001
0100
0000
0000
0010
0100
0001
1000
0001
0010
0100
0001
0010
0000
,  // measure 77
0010
0000
0100
0010
0001
0000
0010
0000
0100
0000
0001
0000
0100
0000
1000
0000
,  // measure 78
0010
0000
0100
0001
0000
0000
0010
0001
0100
0010
0001
0100
0001
0100
1000
0000
,  // measure 79
0010
0000
0001
0010
0100
0000
0010
0000
0001
0000
1000
0000
0001
0000
0100
0000
,  // measure 80
0010
0000
0100
0001
0000
0000
0100
0010
0001
1000
0001
0100
0010
0100
1000
0000
,  // measure 81
0100
0000
0010
0001
0100
0000
0010
0000
0001
0000
0100
0000
0001
0000
0100
0000
,  // measure 82
1000
0000
0010
0100
0000
0000
0001
1000
0001
0010
0001
0100
0001
0100
0010
0000
,  // measure 83
0100
0000
0010
0001
0010
0100
0001
0000
0000
0000
1000
0000
0000
0000
0000
0000
;
