#VERSION:0.83;
#TITLE:party out;
#SUBTITLE:;
#ARTIST:Riordan, & A+;
#TITLETRANSLIT:;
#SUBTITLETRANSLIT:;
#ARTISTTRANSLIT:;
#GENRE:;
#ORIGIN:;
#CREDIT:;
#BANNER:;
#BACKGROUND:;
#PREVIEWVID:;
#JACKET:;
#CDIMAGE:;
#DISCIMAGE:;
#LYRICSPATH:;
#CDTITLE:;
#MUSIC:Riordan & A - Party Out (Extended Mix).ogg;
#OFFSET:0.000000;
#SAMPLESTART:100.059883;
#SAMPLELENGTH:12.000000;
#SELECTABLE:YES;
#BPMS:0.000=132.000;
#STOPS:0.000=0.200;
#DELAYS:;
#WARPS:;
#TIMESIGNATURES:0.000=4=4;
#TICKCOUNTS:0.000=4;
#COMBOS:0.000=1;
#SPEEDS:0.000=1.000=0.000=0;
#SCROLLS:0.000=1.000;
#FAKES:;
#LABELS:0.000=Song Start;
#BGCHANGES:;
#KEYSOUNDS:;
#ATTACKS:
;

//---------------dance-single - ----------------
#NOTEDATA:;
#CHARTNAME:;
#STEPSTYPE:dance-single;
#DESCRIPTION:;
#CHARTSTYLE:;
#DIFFICULTY:Hard;
#METER:15;
#RADARVALUES:0.733068,0.818853,0.184242,0.006824,0.465723,1504.000000,1450.000000,54.000000,2.000000,0.000000,0.000000,0.000000,0.000000,0.000000,0.733068,0.818853,0.184242,0.006824,0.465723,1504.000000,1450.000000,54.000000,2.000000,0.000000,0.000000,0.000000,0.000000,0.000000;
#CREDIT:;
#NOTES:
// measure 0
0000
0000
0000
0000
,  // measure 1
0000
0000
0000
0000
,  // measure 2
0001
1000
0001
0100
0010
1001
0001
0100
,  // measure 3
0010
0001
0100
0001
0100
0001
0100
0010
,  // measure 4
0001
1000
0001
0100
0010
1001
0100
0010
,  // measure 5
0001
0100
0001
0100
0001
0100
0010
0001
,  // measure 6
1000
0001
0100
0010
1000
0101
0100
0010
,  // measure 7
0100
0001
0100
0010
,  // measure 8
1001
0100
0010
0100
0001
0110
0001
0100
,  // measure 9
1000
0010
0100
0001
0100
0010
0100
0010
,  // measure 10
0100
1000
0100
0010
0001
0011
0010
0100
,  // measure 11
0001
0100
1000
0100
0001
0100
0001
0100
,  // measure 12
0001
0100
0100
1000
0100
1100
0100
0010
,  // measure 13
0001
0100
0010
0100
0001
0100
0001
0100
,  // measure 14
0000
0000
1000
0000
0000
0000
1000
0001
0100
0010
0100
0000
0001
0000
0000
0000
,  // measure 15
0010
0001
0100
0000
0010
0000
0100
0001
0010
0100
0001
0000
0000
0000
0000
0000
,  // measure 16
0010
0001
0100
0010
0100
0011
0100
0001
,  // measure 17
0100
0001
1000
0001
0010
0100
0010
0100
,  // measure 18
0001
1000
0001
0100
0010
1001
0100
0010
,  // measure 19
0100
0010
0100
0001
0100
0010
0100
1000
,  // measure 20
0010
0100
0010
0100
0010
0110
0010
0001
,  // measure 21
0100
0001
0100
0010
0001
1000
0100
0010
,  // measure 22
0001
0100
0001
0100
0010
1001
0010
0100
,  // measure 23
0001
1000
0001
0010
0100
0001
1000
0001
,  // measure 24
1001
1000
0001
0100
0010
1001
0010
0100
,  // measure 25
0001
0100
0001
0100
0010
0100
0001
0100
,  // measure 26
1000
0010
0100
0001
1000
0011
0100
0001
,  // measure 27
0100
0001
1000
0001
0010
0100
0001
0100
,  // measure 28
0001
0100
0010
0100
0010
0110
0100
0010
,  // measure 29
0001
0100
0001
0100
0001
0100
0010
0001
,  // measure 30
1000
0001
0100
0010
0001
0110
0001
1000
,  // measure 31
0100
0100
0010
0001
1000
0001
0100
0010
,  // measure 32
1000
0100
0001
0100
0001
0000
0010
0100
0000
0010
0100
0001
1000
0100
0001
1000
,  // measure 33
0100
0000
0000
0000
0001
0100
0001
1000
0100
0000
0010
0001
0100
0010
0100
0000
,  // measure 34
0000
0010
0100
0000
0010
0000
0000
0001
1000
0001
0100
0010
0100
1000
0001
0000
,  // measure 35
0100
0010
1000
0100
0000
0000
0010
0100
0001
0010
0100
0010
0100
0001
1000
0000
,  // measure 36
0000
0100
0001
0000
1000
0000
0100
0000
0010
0100
0001
0000
0010
0001
0100
0000
,  // measure 37
0000
0000
1000
0001
0100
0000
0010
0100
0001
0010
0100
0010
0001
1000
0100
0010
,  // measure 38
0100
0000
0000
0010
0100
0000
0001
0000
1000
0000
0001
0000
0100
0000
0000
0010
,  // measure 39
0100
0000
0001
1000
0000
0100
0001
0000
0001
0000
0100
0000
1000
0000
0100
0001
,  // measure 40
0010
0000
0000
0000
1000
0100
0001
0010
0100
0000
0010
0100
0000
0001
0000
0010
,  // measure 41
0100
0000
0010
0000
0000
0001
0100
0001
0010
0000
0100
0000
0010
0001
0100
0000
,  // measure 42
1000
0000
0100
0000
0000
0001
0000
0010
0100
0000
0000
0010
0100
0000
0001
1000
,  // measure 43
0100
0000
0010
0100
0001
0000
1000
0100
0001
0000
0100
0010
0001
0100
0010
0000
,  // measure 44
0100
0010
1000
0100
0001
0000
0000
0000
1000
0000
0001
0000
0100
0000
0000
0010
,  // measure 45
0100
0001
0010
1000
0100
0010
0001
0000
0010
0000
0001
0000
0100
0000
0000
0010
,  // measure 46
0100
0000
0000
0000
0010
0100
0001
0000
1000
0000
0100
0001
0010
0000
0000
0000
,  // measure 47
0010
0000
0100
0000
0000
0000
0010
0000
0001
0000
1000
0000
0100
0010
0100
0000
,  // measure 48
0001
0100
0001
0100
0010
0110
0001
0100
,  // measure 49
0001
0100
0010
0001
0100
0001
0100
0010
,  // measure 50
0001
1000
0001
0100
0010
1100
0010
0001
,  // measure 51
0100
0001
0100
0001
0100
0001
0100
0010
,  // measure 52
0001
1000
0001
0100
0010
1001
0010
0100
,  // measure 53
0001
0100
0001
0100
0001
0100
1000
0100
,  // measure 54
0001
0010
0001
0100
0010
1001
0100
0001
,  // measure 55
1000
0000
0100
0000
0001
0000
0010
0000
0100
0000
0010
0000
0100
0001
1000
0000
,  // measure 56
0101
0010
0100
0001
1000
0011
0100
0001
,  // measure 57
1000
0010
0001
0100
0001
0100
0010
0001
,  // measure 58
1000
0001
0100
0010
0001
1001
0010
0100
,  // measure 59
0001
0100
0010
0001
1000
0001
0100
0010
,  // measure 60
0001
0100
0001
0100
0010
1001
0100
0001
,  // measure 61
0100
0001
1000
0001
0010
0100
0001
1000
,  // measure 62
0001
0010
0100
0001
0100
0101
0100
0010
,  // measure 63
0100
0000
0010
0000
0100
0000
0001
0000
0100
0000
0010
0000
0001
1000
0100
0000
,  // measure 64
0010
0000
0100
0000
0001
0000
1000
0000
0001
0000
0010
0100
0010
0001
1000
0000
,  // measure 65
0100
0010
0001
1000
0001
0100
0001
0100
,  // measure 66
1000
0000
0010
0000
0001
0000
0100
0000
0010
0000
0001
0100
0001
0100
1000
0000
,  // measure 67
0010
0010
0100
0010
0001
0100
0001
0100
,  // measure 68
1000
0000
0010
0000
0100
0000
0001
0000
1000
0000
0010
0100
0001
1000
0001
0000
,  // measure 69
0010
0010
0100
0010
0100
0001
0100
1000
,  // measure 70
0010
0000
0001
0000
1000
0000
0001
0000
0100
0000
0010
0100
0001
1000
0100
0000
,  // measure 71
0010
0000
0001
0000
0100
0000
0001
0000
0100
0000
0010
0000
0001
0100
1000
0000
,  // measure 72
0001
0000
1000
0000
0001
0000
0100
0000
0010
0000
0001
0100
0001
1000
0100
0000
,  // measure 73
0100
0010
0001
0100
0010
0100
0001
0100
,  // measure 74
1000
0000
0010
0000
0100
0000
0001
0000
1000
0000
0010
0100
0001
1000
0001
0000
,  // measure 75
0010
0100
0001
1000
0001
0010
0100
0001
,  // measure 76
0100
0000
0010
0000
0100
0000
0001
0000
1000
0000
0100
0001
0100
0001
0010
0000
,  // measure 77
0100
0010
0100
0010
0001
0100
0001
0100
,  // measure 78
0010
0000
0001
0000
1000
0000
0001
0000
0100
0000
0010
0100
0001
1000
0100
0000
,  // measure 79
0001
0100
0010
0001
1000
0001
0100
0010
,  // measure 80
1000
0100
0001
0100
0001
0010
0000
0100
0000
0010
0100
0001
1000
0001
0000
0010
,  // measure 81
0000
0100
0001
0000
0000
0100
0001
1000
0001
0010
0100
0001
0100
0001
0010
0000
,  // measure 82
0000
0000
0100
0000
0010
0000
0100
0001
0000
1000
0000
0000
0100
0010
0000
0100
,  // measure 83
0000
0001
0000
0000
0010
0100
0001
1000
0001
0000
0010
0000
0100
0000
0001
0000
,  // measure 84
0010
0000
0100
0001
1000
0000
0100
0010
0100
0000
0000
0010
0000
0100
0001
0000
,  // measure 85
0010
0001
0100
0010
0001
0100
0001
0100
0010
0001
1000
0001
0100
0000
0010
0100
,  // measure 86
0000
0001
0000
0000
0100
0010
0100
0010
0001
0100
0001
0100
0001
1000
0100
0000
,  // measure 87
0010
0001
0010
0100
0001
1000
0010
0100
0010
0100
0001
1000
0100
0000
0010
0000
,  // measure 88
0001
1000
0001
0100
0000
0010
0100
0001
1000
0000
0100
0001
0000
0000
0000
1000
,  // measure 89
0100
0010
0000
0001
0010
0000
0001
0100
0000
0010
0100
0000
0100
0000
0000
0000
,  // measure 90
0100
0001
0010
0000
0100
0000
0001
0010
0100
0010
0100
0000
0000
0000
1000
0100
,  // measure 91
0001
0010
0100
0001
1000
0000
0010
0000
0200
0000
0300
0000
0000
0100
0010
0001
,  // measure 92
1000
0001
1000
0100
0001
0100
0001
1000
0001
0010
0100
0001
0100
0010
0001
0100
,  // measure 93
1000
0000
0010
0001
0100
0010
0100
0001
1000
0001
0010
0100
0000
0000
0010
0000
,  // measure 94
0200
0000
0000
0000
0010
0000
0310
0001
,  // measure 95
1100
0000
0000
0000
1100
0000
0000
0000
0101
0000
0000
0000
0101
0000
0000
1000
,  // measure 96
0100
0010
0100
0001
1000
0000
0100
0001
0100
0010
0100
0001
1000
0001
0100
0010
,  // measure 97
0100
0000
0000
0001
0100
0001
0100
0010
0001
1000
0001
0100
1000
0100
0001
0010
,  // measure 98
0100
0010
0100
0001
1000
0000
0000
0010
0001
1000
0001
0100
0010
0100
0001
0000
,  // measure 99
1000
0100
0001
0100
0001
0000
0010
0100
0001
1000
0001
0010
0100
0001
0010
0000
,  // measure 100
0100
0001
1000
0000
0100
0000
0001
0000
0010
0000
0100
0000
0010
0100
0001
0000
,  // measure 101
0100
1000
0001
0100
0001
0000
0010
0010
0100
0010
0001
0100
0001
1000
0100
0001
,  // measure 102
0010
0000
0000
0100
1000
0000
0010
0000
0001
0000
0100
0000
0010
0000
0000
0010
,  // measure 103
0100
0000
0001
1000
0000
0100
0001
0000
0010
0000
0100
0000
1000
0010
0100
0001
,  // measure 104
0100
0000
0000
0000
0100
0001
1000
0100
0001
0000
0010
0100
0000
0001
0000
0010
,  // measure 105
0100
0000
0001
0000
0000
0000
1000
0100
0001
0100
0001
0100
0010
0100
0001
1000
,  // measure 106
0100
0000
0010
0000
0000
0100
0000
0001
1000
0000
0000
0100
0001
0000
0010
0100
,  // measure 107
0001
0000
1000
0100
0001
0000
0010
0100
0010
0000
0010
0100
0001
0000
1000
0000
,  // measure 108
0100
0001
1000
0001
0010
0100
0000
0000
0010
0000
0100
0000
1000
0000
0000
0100
,  // measure 109
0001
0010
0100
0001
1000
0000
0010
0000
0100
0000
0010
0000
0001
0100
0000
0001
,  // measure 110
0010
0100
0000
0000
0010
0100
0001
0000
1000
0000
0100
0001
0100
0000
0000
0000
,  // measure 111
0001
0000
0100
0000
0000
0000
1000
0000
0001
0000
0100
0000
0010
0100
0001
0000
,  // measure 112
0001
0100
0001
0100
0010
1001
0010
0100
,  // measure 113
0010
0100
0010
0001
0100
0001
0100
0010
,  // measure 114
0001
0100
0001
0100
0010
1001
0010
0001
,  // measure 115
0100
0010
0001
1000
0001
0100
0010
0001
,  // measure 116
0100
0001
0100
0010
0100
0101
0010
0100
,  // measure 117
0010
0001
0100
0001
0100
0001
0100
1000
,  // measure 118
0010
0100
0001
0100
0001
0101
1000
0100
,  // measure 119
0001
0000
0010
0000
1000
0000
0001
0000
0100
0000
0010
0000
1000
0100
0001
0000
,  // measure 120
0101
0100
0001
0100
0010
0101
0100
1000
,  // measure 121
0100
0001
0100
0001
0100
0010
0100
0001
,  // measure 122
1000
0001
0010
0100
0001
0101
1000
0100
,  // measure 123
0001
0100
0001
0100
0010
0100
0001
0100
,  // measure 124
0001
0100
0001
1000
0100
0110
0010
0100
,  // measure 125
0001
0100
0001
1000
0001
0010
0100
0001
,  // measure 126
0100
0010
0001
0100
0010
1001
0100
0010
,  // measure 127
0001
0000
0100
0000
0010
0000
0001
0000
0100
0000
0010
0000
1000
0100
0001
0000
,  // measure 128
1000
0100
0001
0100
0001
0000
0010
0100
0001
0000
1000
0100
0010
0100
0001
0010
,  // measure 129
0100
0000
0010
0100
0001
0000
1000
0100
0001
0010
0100
0000
0010
0000
0001
0000
,  // measure 130
0100
0010
0100
0000
0001
0000
1000
0100
0001
0010
0100
0010
0001
0000
1000
0100
,  // measure 131
0001
0100
0010
0100
0001
0000
1000
0000
0010
0000
0100
0000
0001
0100
0001
0100
,  // measure 132
1000
0000
0010
0001
0100
0000
0010
0100
0001
0000
1000
0000
0100
0010
0100
0001
,  // measure 133
1000
0000
0010
0100
0001
0100
0001
1000
0001
1000
0100
0001
0100
0000
0010
0000
,  // measure 134
0100
0000
0100
0000
0010
0000
0100
0000
0010
0000
0001
0100
1000
0010
0100
0000
,  // measure 135
0101
0110
0110
0101
,  // measure 136
0010
0000
0001
0000
1000
0000
0001
0000
0100
0000
0010
0100
1000
0001
0010
0000
,  // measure 137
0100
0001
0010
0100
0001
0100
0010
0001
,  // measure 138
1000
0000
0001
0000
0100
0000
0010
0000
0001
0000
0100
0010
0100
1000
0001
0000
,  // measure 139
0010
0000
0001
0000
1000
0000
0001
0000
0100
0000
0010
0000
0001
0100
1000
0000
,  // measure 140
0010
0000
0100
0000
0001
0000
1000
0000
0100
0000
0001
0100
0001
0010
0100
0000
,  // measure 141
0010
0100
0001
1000
0001
0010
0100
0001
,  // measure 142
0010
0000
0001
0000
1000
0000
0001
0000
0100
0000
0010
0100
0001
0100
1000
0000
,  // measure 143
0110
0000
0001
0000
0000
0000
0001
0000
0100
0000
0010
0000
0001
0100
1000
0000
,  // measure 144
0101
0010
0100
0001
1000
0110
0001
1000
,  // measure 145
0001
0010
0100
0001
1000
0001
0010
0100
,  // measure 146
0001
0100
0001
0010
0010
0110
0100
0010
,  // measure 147
0001
0100
0010
0001
0100
0001
0100
0010
,  // measure 148
0001
1000
0001
0100
0010
1001
0010
0100
,  // measure 149
0001
0100
0010
0001
1000
0001
0100
0010
,  // measure 150
0001
1000
0001
0100
0010
1001
0100
0010
,  // measure 151
0100
0010
0100
0001
0100
1000
0100
1000
,  // measure 152
0110
0100
0001
1000
0001
0101
0010
0100
,  // measure 153
0001
1000
0001
0010
0100
0001
0100
0001
,  // measure 154
0010
0100
0001
0100
0010
1001
0100
0010
,  // measure 155
0100
0010
0100
0010
0001
0100
0001
0100
,  // measure 156
1000
0010
0100
0001
0100
0110
0100
0010
,  // measure 157
0100
0010
0100
0010
0001
1000
0001
0100
,  // measure 158
0010
0010
0100
0001
0100
0011
0100
0010
,  // measure 159
1000
0001
0100
0010
0001
0010
0100
0010
,  // measure 160
0101
0000
0000
0000
;
