#VERSION:0.83;
#TITLE:palo santo;
#SUBTITLE:;
#ARTIST:Siickbrain;
#TITLETRANSLIT:;
#SUBTITLETRANSLIT:;
#ARTISTTRANSLIT:;
#GENRE:;
#ORIGIN:;
#CREDIT:;
#BANNER:;
#BACKGROUND:;
#PREVIEWVID:;
#JACKET:;
#CDIMAGE:;
#DISCIMAGE:;
#LYRICSPATH:;
#CDTITLE:;
#MUSIC:SIIICKBRAIN - PALO SANTO (Official Video).ogg;
#OFFSET:0.000000;
#SAMPLESTART:100.059883;
#SAMPLELENGTH:12.000000;
#SELECTABLE:YES;
#BPMS:0.000=154.000;
#STOPS:0.000=0.200,
16.000=0.300,
23.000=0.300,
30.000=0.400,
37.000=0.500,
44.000=0.400,
51.000=0.400,
66.000=0.400,
169.000=0.400,
176.000=0.400,
183.000=0.400,
190.000=0.400,
221.000=0.400,
300.000=0.400,
307.000=0.400,
314.000=0.400,
321.000=0.300,
328.000=0.400,
335.000=0.400,
342.000=0.400,
349.000=0.400,
356.000=0.400,
363.000=0.400,
370.000=0.350;
#DELAYS:;
#WARPS:;
#TIMESIGNATURES:0.000=4=4;
#TICKCOUNTS:0.000=4;
#COMBOS:0.000=1;
#SPEEDS:0.000=1.000=0.000=0;
#SCROLLS:0.000=1.000;
#FAKES:;
#LABELS:0.000=Song Start;
#BGCHANGES:0.000=SIIICKBRAIN - PALO SANTO (Official Video).mp4=1.000=0=0=1=====,
99999=-nosongbg-=1.000=0=0=0 // don't automatically add -songbackground-
;
#KEYSOUNDS:;
#ATTACKS:
;

//---------------dance-single - ----------------
#NOTEDATA:;
#CHARTNAME:;
#STEPSTYPE:dance-single;
#DESCRIPTION:;
#CHARTSTYLE:;
#DIFFICULTY:Hard;
#METER:11;
#RADARVALUES:0.454511,0.569378,0.019205,0.025606,0.038409,497.000000,494.000000,3.000000,4.000000,0.000000,0.000000,0.000000,0.000000,0.000000,0.454511,0.569378,0.019205,0.025606,0.038409,497.000000,494.000000,3.000000,4.000000,0.000000,0.000000,0.000000,0.000000,0.000000;
#CREDIT:;
#NOTES:
// measure 0
0000
0000
0000
0000
,  // measure 1
0000
0000
0000
0000
,  // measure 2
0000
0000
0000
0000
,  // measure 3
0000
0000
0000
0000
,  // measure 4
0000
0000
0010
0001
1000
0001
0100
0010
,  // measure 5
0001
0100
0001
0100
0001
0100
1000
0000
,  // measure 6
1000
0100
0010
0100
0010
0100
0010
0100
,  // measure 7
0001
0100
0001
0100
0100
0000
0010
0001
,  // measure 8
0100
0001
0100
0010
0001
0100
0001
0100
,  // measure 9
0001
0100
1000
0000
0001
0100
0010
0001
,  // measure 10
1000
0001
0100
0010
0001
0100
0001
0100
,  // measure 11
1000
0000
0100
0001
0010
0100
0010
0100
,  // measure 12
0010
0010
0001
0100
0001
0100
1000
0000
,  // measure 13
0010
0100
0010
0001
0100
0001
0100
0010
,  // measure 14
0001
0100
0001
0100
1000
0000
0100
0001
,  // measure 15
0100
0001
0010
0100
0100
0010
0100
0010
,  // measure 16
0001
0100
0001
0100
1000
0000
0010
0100
,  // measure 17
0010
0100
0010
0001
0100
0010
0001
0100
,  // measure 18
0001
0000
0100
0000
1000
0100
0001
0000
0010
0100
0001
0000
2000
0000
0000
0000
,  // measure 19
0000
0000
0000
0000
3000
0001
0000
0000
,  // measure 20
1000
0100
0001
0100
0010
0001
0100
0001
,  // measure 21
0100
0010
0001
0100
0001
0100
0010
0001
,  // measure 22
0100
0001
0100
0010
0001
1000
0001
0100
,  // measure 23
0010
0001
0100
0001
0100
0010
0001
0100
,  // measure 24
0001
0100
1000
0001
0100
0001
0100
0010
,  // measure 25
0001
0100
0001
0100
0010
0001
0100
0001
,  // measure 26
0100
0010
0001
0100
0001
1000
0100
0010
,  // measure 27
0100
1000
0100
0010
0100
0001
0100
0001
,  // measure 28
0100
0000
0001
0010
0100
0000
0100
0000
0010
0000
1000
0000
0010
0000
0100
0000
,  // measure 29
0001
0100
0001
0010
0100
0001
0100
0010
,  // measure 30
0100
0010
0001
0100
0001
0100
0010
0001
,  // measure 31
0100
0001
0100
0010
0001
1000
0001
0100
,  // measure 32
0010
0001
0100
0001
0100
0001
0100
0010
,  // measure 33
0100
0001
0100
0010
0001
0000
0000
0000
,  // measure 34
0000
0000
0000
0000
0100
0000
0010
0100
,  // measure 35
0000
0000
0000
0000
0010
0000
0000
0000
0000
0001
0000
0000
0000
0000
1000
0000
,  // measure 36
0000
0001
0000
0000
0000
0000
0000
0000
0010
0000
0000
0000
0001
0000
0100
0000
,  // measure 37
0000
0000
0000
0000
0100
0000
0001
0000
0000
0000
0000
1000
0000
0000
0100
0000
,  // measure 38
0000
0010
0000
0000
0000
0000
0000
0000
0001
0000
0000
0000
1000
0000
0100
0000
,  // measure 39
0000
0000
0000
0000
0001
0000
0000
0000
0000
0100
0000
0000
0000
0000
0010
0000
,  // measure 40
0000
0001
0000
0000
0000
0000
0000
0000
0100
0000
0000
0000
1000
0000
0001
0000
,  // measure 41
0000
0000
0000
0000
0100
0000
0001
0000
0000
0000
0000
0100
0000
0000
0010
0000
,  // measure 42
0000
0100
0000
0000
0010
0001
1000
0001
,  // measure 43
0100
0010
0001
0100
0001
0100
0001
0100
,  // measure 44
1000
0000
0100
0010
0010
0001
0100
0010
,  // measure 45
0001
0100
0001
0100
0001
0100
1000
0000
,  // measure 46
0001
0100
0010
0001
0100
0001
0100
0010
,  // measure 47
0001
0100
0001
0100
1000
0000
0010
0001
,  // measure 48
0100
0001
0100
0010
0001
0100
0001
0100
,  // measure 49
0001
0100
1000
0000
0100
0000
0001
0000
,  // measure 50
0100
0010
0001
0100
,  // measure 51
0001
0100
0010
0001
,  // measure 52
1000
0001
0100
0010
,  // measure 53
0100
0010
0100
0001
0010
0000
0000
0000
0100
0000
0000
0000
0010
0000
0000
0000
,  // measure 54
0100
0001
0100
0001
,  // measure 55
0100
0000
0010
0001
,  // measure 56
0100
0010
0100
1001
,  // measure 57
0200
0000
0000
0000
,  // measure 58
0000
0000
0000
0000
,  // measure 59
0000
0000
0000
0000
,  // measure 60
0000
0000
0000
0000
,  // measure 61
0020
0000
0000
0000
,  // measure 62
0000
0000
0000
0000
,  // measure 63
0000
0000
0000
0000
,  // measure 64
0000
0000
0000
0330
,  // measure 65
2000
0000
0000
0000
,  // measure 66
0000
0000
0000
0000
,  // measure 67
0000
0000
0000
0000
,  // measure 68
0000
0000
0000
3000
,  // measure 69
0100
0000
0100
0000
,  // measure 70
0100
0000
0100
0000
,  // measure 71
0100
0000
0100
0000
,  // measure 72
0100
0000
0100
0000
,  // measure 73
0100
0001
1000
0001
,  // measure 74
0010
0100
0001
0100
0010
0100
0001
0100
,  // measure 75
1000
0000
0001
0000
0100
0000
0010
0001
,  // measure 76
0100
0010
0001
1000
0001
0100
1000
0000
,  // measure 77
0001
0100
0010
0001
0100
0001
0100
0010
,  // measure 78
0001
1000
0001
0100
1000
0000
0001
0100
,  // measure 79
0010
0001
0100
0001
0100
0010
0001
1000
,  // measure 80
0001
0100
1000
0000
0001
0100
0010
0001
,  // measure 81
1000
0001
0100
0010
0001
0100
0001
0100
,  // measure 82
1000
0000
0001
0100
0010
0001
1000
0001
,  // measure 83
0100
0010
0001
0100
0001
0100
1000
0000
,  // measure 84
0100
0010
0100
0010
0100
1000
0001
0010
,  // measure 85
0100
0010
0001
0100
0001
0000
0010
0001
,  // measure 86
0100
0010
0001
0100
0001
0100
0001
0100
,  // measure 87
0001
0100
1000
0000
0101
0000
0101
0000
,  // measure 88
0001
0100
0001
0100
0001
0100
1000
0010
,  // measure 89
0100
0000
0010
0001
0100
0001
0100
0010
,  // measure 90
0001
0100
0001
0100
0001
0100
1000
0000
,  // measure 91
0010
0100
0010
0001
1000
0001
0100
0010
,  // measure 92
0001
0100
0001
0100
1000
0000
0001
0100
,  // measure 93
0001
0010
1000
0100
0000
0001
0000
0000
;
