#TITLE:outside;
#SUBTITLE:;
#ARTIST:Jimmy Lorange;
#TITLETRANSLIT:;
#SUBTITLETRANSLIT:;
#ARTISTTRANSLIT:;
#GENRE:;
#CREDIT:;
#BANNER:;
#BACKGROUND:;
#LYRICSPATH:;
#CDTITLE:;
#MUSIC:Outside.ogg;
#OFFSET:0.000000;
#SAMPLESTART:100.059883;
#SAMPLELENGTH:12.000000;
#SELECTABLE:YES;
#BPMS:0.000000=104.000000
,176.000000=52.000000
,190.000000=104.000000
;
#STOPS:0.000000=0.250000
;
#BGCHANGES:;
#KEYSOUNDS:;
#ATTACKS:;

//---------------dance-single - ----------------
#NOTES:
     dance-single:
     :
     Hard:
     13:
     0.539263,0.585880,0.000000,0.000000,0.683484,602.000000,602.000000,0.000000,0.000000,0.000000,0.000000,0.539263,0.585880,0.000000,0.000000,0.683484,602.000000,602.000000,0.000000,0.000000,0.000000,0.000000:
// measure 0
0000
0000
0000
0000
,  // measure 1
0000
0000
0000
0000
,  // measure 2
0000
0000
0000
0000
,  // measure 3
0000
0000
0000
0000
,  // measure 4
0100
0000
0000
0001
0000
0001
0010
0000
0100
0001
1000
0001
0010
0000
0100
0001
,  // measure 5
0000
0000
0000
0010
0000
0100
0001
0000
0100
0010
0001
1000
0100
0000
0010
0000
,  // measure 6
0010
0000
0000
0001
0000
0100
0010
0000
0001
1000
0001
0100
0010
0000
0001
0100
,  // measure 7
0010
0000
0000
0100
0000
0001
0010
0000
0100
0010
0001
1000
0100
0000
0010
0000
,  // measure 8
0100
0000
0000
0010
0000
0100
0001
0000
1000
0100
0100
0001
0010
0000
0100
0001
,  // measure 9
0010
0000
0000
0001
0000
0100
1000
0000
0001
1000
0001
0100
0010
0000
0001
0000
,  // measure 10
0010
0000
0000
0001
0000
0100
0010
0000
0010
0001
1000
0001
0100
0000
0010
0001
,  // measure 11
0100
0000
0000
0001
0000
0100
0010
0000
0001
1000
0001
0100
0010
0000
0100
0001
,  // measure 12
0010
0000
0100
0000
0001
1000
0100
0000
0001
0000
0100
0000
0010
0000
0001
1000
,  // measure 13
0100
0000
0010
0100
0001
1000
0001
0010
0100
0000
0001
0010
0100
0000
0010
0100
,  // measure 14
0001
0000
0100
0000
0010
0000
0000
0000
0100
0010
0100
0000
0001
0000
0010
0001
,  // measure 15
0100
0000
0010
0000
0100
0001
0010
0100
0001
0000
0100
0000
0010
0000
0100
0001
,  // measure 16
1000
0000
0100
0000
0001
0000
0010
0100
0001
0010
0100
0000
0001
0000
0100
0010
,  // measure 17
1000
0100
0001
0000
0010
0000
0100
0001
0010
0000
0100
0000
0010
0000
1000
0001
,  // measure 18
0100
0000
0010
0000
0000
0100
0001
0010
0100
0001
0010
0000
0010
0000
0001
1000
,  // measure 19
0100
0000
0010
0100
0000
0001
1000
0100
0001
0010
0100
0000
0100
0000
0010
0000
,  // measure 20
0001
0000
0010
0000
0100
0010
0001
0100
,  // measure 21
1000
0000
0010
0000
0001
0100
0001
0100
,  // measure 22
1000
0000
0100
0000
0010
0001
1000
0001
,  // measure 23
0100
0000
0010
0000
0001
0100
0001
0100
,  // measure 24
1000
0010
0001
0100
0010
0001
0100
0001
,  // measure 25
1000
0001
0100
0000
1000
0001
0100
0001
,  // measure 26
0010
0001
0100
0010
0001
1000
0001
0100
,  // measure 27
0010
0000
0000
0000
0100
0000
0000
0000
0100
0001
0010
0000
0001
0000
0000
0000
,  // measure 28
1000
0000
0000
0001
0000
0010
0100
0000
0001
1000
0100
0001
0010
0000
0100
0001
,  // measure 29
0100
0000
0000
0010
0000
0100
0001
0000
1000
0100
0001
0100
0001
0000
0010
0000
,  // measure 30
0010
0000
0000
0100
0000
0001
1000
0000
0100
0001
0100
0001
0010
0000
0100
0001
,  // measure 31
0010
0000
0000
0001
0000
0010
0100
0000
0001
1000
0100
0001
0010
0000
0100
0000
,  // measure 32
0010
0000
0000
0100
0000
0001
1000
0000
0100
0001
0100
0001
0010
0000
0100
0001
,  // measure 33
0010
0000
0000
0100
0000
1000
0100
0000
0001
0100
0001
0100
0001
0000
0010
0000
,  // measure 34
0100
0000
0000
0010
0000
0100
0001
0000
0010
0100
0001
1000
0100
0000
0010
0100
,  // measure 35
0001
0000
0000
0010
0000
0100
0001
0000
0010
0100
0001
1000
0001
0000
0010
0000
,  // measure 36
0100
0000
0000
0010
0000
0100
0001
0000
0010
0000
0100
0000
0010
0000
0000
0000
,  // measure 37
1000
0000
0100
0001
0010
0100
0001
0000
0001
0000
0100
0000
1000
0000
0010
0000
,  // measure 38
0100
0000
0010
0100
0000
0001
1000
0000
0100
0000
0010
0000
0001
0000
0000
0000
,  // measure 39
0000
0000
0000
0010
0000
0100
0001
0000
0100
0000
0010
0000
0001
0000
0100
0000
,  // measure 40
1000
0000
0010
0100
0000
0001
1000
0000
0100
0000
0010
0000
0001
0000
0000
0000
,  // measure 41
0000
0000
0000
0000
0100
0001
0010
0000
0100
0000
0010
0000
0001
0000
0100
0000
,  // measure 42
1000
0000
0100
0001
0000
0010
0100
0000
0001
0000
0100
0000
0010
0000
0000
0000
,  // measure 43
0000
0000
0100
0001
0000
0010
0100
0000
0100
0000
0001
0000
1000
0000
0000
0000
,  // measure 44
0100
0000
0010
0000
0100
0001
1000
0001
0010
0000
0010
0000
0001
0100
0001
0100
,  // measure 45
1000
0000
0010
0000
0001
0100
0001
0100
1000
0000
0010
0000
0001
0100
0001
0100
,  // measure 46
1000
0100
0001
0010
0100
0010
0001
0100
1000
0000
0010
0000
0100
0010
0001
1000
,  // measure 47
0001
0100
0010
0001
1000
0001
0100
0010
1000
0000
0000
0010
0000
0100
0001
0000
,  // measure 48
1000
0100
0001
0010
0100
0000
0001
0100
0001
0000
0000
0010
0000
0100
0001
0000
,  // measure 49
1000
0100
0001
0100
0001
0000
0010
0100
0001
0000
0000
0010
0000
0100
0001
0000
,  // measure 50
0100
0010
0001
0100
1000
0000
0100
0001
0010
0000
0000
0100
0000
0001
1000
0000
,  // measure 51
0100
0001
0100
0001
0010
0000
0001
0010
0001
0000
0000
0100
0000
0010
0100
0000
,  // measure 52
0001
1000
0100
0001
0010
0000
0100
1000
0010
0000
0000
0100
0000
0001
1000
0000
,  // measure 53
0010
0100
0001
1000
0001
0000
0010
0100
0010
0000
0000
0001
0000
0010
0100
0000
,  // measure 54
0001
0010
0100
0001
1000
0000
0100
0001
0010
0000
0000
0100
0000
0001
1000
0000
,  // measure 55
0100
0001
0010
0100
0000
0000
0001
0010
0100
0000
0000
0001
0000
0100
0001
0000
,  // measure 56
0010
0100
0001
1000
0001
0000
0010
0100
0001
0000
0000
0010
0000
0100
0001
0000
,  // measure 57
1000
0100
0001
0100
0001
0000
0010
0100
0001
0000
0000
0010
0000
0100
0001
0000
,  // measure 58
1000
0100
0001
0100
0001
0000
0010
0100
0001
0000
0000
1000
0000
0100
0001
0000
,  // measure 59
0010
0010
0001
0100
1000
0000
0010
0100
0001
0000
0000
1000
0000
0100
0001
0000
,  // measure 60
0010
0100
0001
1000
0001
0000
0001
0010
1000
0000
0000
0001
0000
0010
0100
0000
,  // measure 61
0001
1000
0100
0001
0010
0000
0100
0001
0010
0000
0000
0100
0000
0001
1000
0000
,  // measure 62
0100
0001
0100
0001
0010
0000
0100
0001
0010
0000
0000
0100
0000
0001
1000
0000
,  // measure 63
0100
0001
0100
0001
0010
0000
0001
1000
0100
0000
0000
0010
0000
0100
0001
0000
,  // measure 64
0010
0100
0001
1000
0001
0000
0010
0100
0000
0000
0000
0000
0000
0000
0000
0000
;
