#TITLE:origami;
#SUBTITLE:;
#ARTIST:Kesha;
#TITLETRANSLIT:;
#SUBTITLETRANSLIT:;
#ARTISTTRANSLIT:;
#GENRE:;
#CREDIT:;
#BANNER:;
#BACKGROUND:;
#LYRICSPATH:;
#CDTITLE:;
#MUSIC:ORIGAMI!.ogg;
#OFFSET:0.000000;
#SAMPLESTART:100.059883;
#SAMPLELENGTH:12.000000;
#SELECTABLE:YES;
#BPMS:0.000000=136.000000
,268.000000=96.000000
,272.000000=136.000000
;
#STOPS:0.000000=0.250000
;
#BGCHANGES:;
#KEYSOUNDS:;
#ATTACKS:;

//---------------dance-single - ----------------
#NOTES:
     dance-single:
     :
     Hard:
     13:
     0.549650,0.527542,0.012933,0.032332,0.155195,595.000000,593.000000,2.000000,5.000000,0.000000,0.000000,0.549650,0.527542,0.012933,0.032332,0.155195,595.000000,593.000000,2.000000,5.000000,0.000000,0.000000:
// measure 0
0000
0000
0000
0000
,  // measure 1
0000
0000
0000
0000
,  // measure 2
0000
0000
0000
0000
,  // measure 3
0000
0000
0000
0000
,  // measure 4
0010
0000
0001
0000
0100
0000
0010
0000
1000
0000
0100
0001
0000
0010
0000
0000
,  // measure 5
0010
0000
0001
0000
0100
0000
0010
0000
1000
0000
0100
0001
0000
0010
0000
0000
,  // measure 6
0001
0000
0100
0000
0010
0000
0001
0000
0100
0000
0010
0100
0000
0001
0000
0000
,  // measure 7
0100
0000
0010
0000
0000
0000
0001
0100
1000
0010
0000
0100
0000
0000
0000
0000
,  // measure 8
0000
0000
0100
0000
0001
1000
0100
0001
0010
0000
0100
0001
0010
0000
0000
0000
,  // measure 9
0010
0000
0001
0000
1000
0000
0001
0000
0100
0000
0100
0010
0000
0001
0000
0000
,  // measure 10
0000
0000
0100
0010
0100
0000
0010
0000
0100
0000
0001
0010
0000
0000
0000
0000
,  // measure 11
0000
0000
0100
0000
0001
0000
0010
0000
0100
0000
0001
0010
0000
0000
0100
0001
,  // measure 12
1000
0000
0010
0000
0000
0000
0100
0001
0010
0000
0100
0000
0000
0000
1000
0001
,  // measure 13
0010
0000
0100
0000
0000
0000
0010
0000
0100
0000
0001
0000
0000
0000
0001
0100
,  // measure 14
0010
0000
0010
0000
0000
0000
0001
1000
0100
0000
0010
0000
0000
0000
0010
0001
,  // measure 15
0100
0000
0000
0000
0000
0000
0010
0001
0100
0000
0010
0000
0000
0000
0010
0000
,  // measure 16
0001
0010
0100
0010
0001
0100
0001
0100
,  // measure 17
1000
0100
0010
0100
0001
0100
0001
0100
,  // measure 18
0010
0001
0100
0001
0100
1000
0000
0000
,  // measure 19
0010
0001
0100
0001
0100
0010
1001
0000
,  // measure 20
0100
0001
0010
0100
0001
0010
1000
0100
,  // measure 21
0001
0010
0100
0010
0001
0100
0001
0100
,  // measure 22
1000
0100
0001
0100
0010
0100
1000
0100
,  // measure 23
0010
0001
0100
0001
0100
0010
0100
0010
,  // measure 24
0100
0010
0001
0100
0001
0100
0010
0001
,  // measure 25
1000
0001
0100
0010
0001
0100
0001
0100
,  // measure 26
0010
0001
0100
0001
0100
0010
0001
0100
,  // measure 27
0001
0100
0010
0100
1000
0100
1000
0100
,  // measure 28
0010
0001
0100
0001
0100
0010
0001
0100
,  // measure 29
0001
0100
0010
0001
0100
0001
0100
0010
,  // measure 30
0100
0000
0100
0000
0010
0000
0100
0000
0001
0000
0010
0100
0000
0001
0000
0000
,  // measure 31
0001
0000
1000
0000
0001
0000
0010
0000
0100
0000
0100
0001
0000
0010
0100
0000
,  // measure 32
0010
0000
0001
0000
0100
0000
0010
0000
0100
0000
0001
0010
0000
0200
0000
0300
,  // measure 33
0000
0000
0010
0000
0100
0000
0001
0000
0010
0000
0100
0001
0000
0010
0000
0000
,  // measure 34
0010
0100
0000
0001
0000
0010
0100
0000
0001
0000
0100
0000
1000
0000
0000
0000
,  // measure 35
0100
0000
0010
0100
0000
0001
1000
0000
0100
0000
0010
0000
0001
0000
0000
0000
,  // measure 36
0010
0000
0100
0001
0000
1000
0100
0000
0001
0000
0010
0000
0100
0000
0000
0000
,  // measure 37
0010
0000
0001
0100
0000
0010
0100
0000
0010
0000
0100
0000
0001
0000
0010
0100
,  // measure 38
0001
0000
1000
0000
0000
0000
0100
0010
0100
0000
0001
0000
0000
0000
0100
1000
,  // measure 39
0010
0000
0001
0000
0000
0000
0100
0010
0100
0000
0010
0000
0000
0000
0100
0001
,  // measure 40
0010
0000
0100
0000
0000
0000
0010
0100
0001
0000
1000
0000
0000
0000
0001
0100
,  // measure 41
0010
0010
0001
0100
0001
0010
0100
0001
,  // measure 42
0100
0010
0100
0010
0100
1000
0001
0100
,  // measure 43
0010
0001
0100
0001
0100
0001
0100
0010
,  // measure 44
0001
0100
0100
0001
0100
1000
0000
0000
,  // measure 45
0001
0010
0100
0001
0100
0010
1001
0000
,  // measure 46
0010
0100
0010
0100
0010
0001
0100
0001
,  // measure 47
0100
0010
0100
1000
0100
0010
0001
0100
,  // measure 48
0001
0100
0010
0001
0100
0001
0100
0010
,  // measure 49
1000
0010
0010
0100
0001
0100
0001
0100
,  // measure 50
0010
0001
0100
0001
0100
0010
0100
1000
,  // measure 51
0100
0010
0100
0001
0100
0001
0100
0010
,  // measure 52
0001
0010
0001
0100
0001
0100
0010
0001
,  // measure 53
0100
0001
0100
0010
0001
1000
0001
0100
,  // measure 54
0020
0000
0000
0030
,  // measure 55
0200
0000
0000
0300
,  // measure 56
2000
0000
0000
3000
,  // measure 57
0020
0000
0000
0030
,  // measure 58
0001
0000
0100
0000
0010
0000
0100
0001
,  // measure 59
0000
0100
0000
0010
0001
0000
0100
0000
,  // measure 60
0010
0000
1000
0001
0100
0000
0001
0100
,  // measure 61
0000
0010
0000
0100
0001
0000
0010
0000
,  // measure 62
0100
0000
0010
0000
0001
0000
0100
1000
,  // measure 63
0000
0010
0000
0001
0100
0000
1000
0000
,  // measure 64
0001
0000
0100
0000
0010
0000
0001
0100
,  // measure 65
0000
0010
0000
0001
1000
0000
0100
0000
,  // measure 66
1000
0100
0001
0100
0001
0010
0100
0001
,  // measure 67
1000
0100
0001
0100
0001
0010
0100
0001
,  // measure 68
0100
0010
0100
0001
1000
0001
0010
0100
,  // measure 69
0001
0010
0100
0010
0001
1000
0001
0100
,  // measure 70
0010
0001
0100
0001
0100
0010
0001
0100
,  // measure 71
0001
0100
1000
0100
0010
0010
0001
0001
,  // measure 72
0010
0100
0100
0010
0001
0001
0100
0010
,  // measure 73
0100
0100
1000
0100
0010
0100
0001
0010
,  // measure 74
0100
0001
0100
0010
0001
1000
0001
0100
,  // measure 75
0010
0100
0010
0001
0100
0001
0100
0010
,  // measure 76
0100
0001
0010
0001
0100
0010
0001
0010
,  // measure 77
0100
0010
0010
0100
0100
0010
0001
0100
,  // measure 78
0001
0100
0010
0100
0010
0001
0100
0001
,  // measure 79
0100
0010
0100
1000
0100
0010
0001
0100
,  // measure 80
0001
0100
0010
0001
0100
0001
0100
0010
,  // measure 81
1000
0010
0100
0010
0001
0100
0001
0100
,  // measure 82
0010
0001
0100
0001
0100
0010
0001
1000
,  // measure 83
0001
0100
0010
0001
0100
0001
0100
0010
,  // measure 84
0001
0100
0001
0100
0010
0001
1000
0010
,  // measure 85
0100
0010
0100
0001
0100
0001
0100
1000
;
