#VERSION:0.83;
#TITLE:only wanna dance;
#SUBTITLE:;
#ARTIST:Almost Monday;
#TITLETRANSLIT:;
#SUBTITLETRANSLIT:;
#ARTISTTRANSLIT:;
#GENRE:;
#ORIGIN:;
#CREDIT:;
#BANNER:;
#BACKGROUND:;
#PREVIEWVID:;
#JACKET:;
#CDIMAGE:;
#DISCIMAGE:;
#LYRICSPATH:;
#CDTITLE:;
#MUSIC:almost monday - only wanna dance.ogg;
#OFFSET:0.000000;
#SAMPLESTART:100.059883;
#SAMPLELENGTH:12.000000;
#SELECTABLE:YES;
#BPMS:0.000=169.000;
#STOPS:0.000=0.400;
#DELAYS:;
#WARPS:;
#TIMESIGNATURES:0.000=4=4;
#TICKCOUNTS:0.000=4;
#COMBOS:0.000=1;
#SPEEDS:0.000=1.000=0.000=0;
#SCROLLS:0.000=1.000;
#FAKES:;
#LABELS:0.000=Song Start;
#BGCHANGES:;
#KEYSOUNDS:;
#ATTACKS:
;

//---------------dance-single - ----------------
#NOTEDATA:;
#CHARTNAME:;
#STEPSTYPE:dance-single;
#DESCRIPTION:;
#CHARTSTYLE:;
#DIFFICULTY:Hard;
#METER:13;
#RADARVALUES:0.674581,0.656803,0.055310,0.055310,0.000000,683.000000,675.000000,8.000000,8.000000,0.000000,0.000000,0.000000,0.000000,0.000000,0.674581,0.656803,0.055310,0.055310,0.000000,683.000000,675.000000,8.000000,8.000000,0.000000,0.000000,0.000000,0.000000,0.000000;
#CREDIT:;
#NOTES:
// measure 0
0000
0000
0000
0000
,  // measure 1
0000
0000
0000
0000
,  // measure 2
0000
0000
0000
0000
,  // measure 3
1000
0100
0010
0001
,  // measure 4
0001
0100
0010
0001
1000
0001
0100
0010
,  // measure 5
0001
1000
0001
0100
0010
0001
0100
0001
,  // measure 6
0100
0010
0001
1000
0001
0100
0010
0001
,  // measure 7
1000
0001
0100
0010
1000
0100
0001
0001
,  // measure 8
0010
0100
0010
0001
0100
0001
0100
0010
,  // measure 9
0001
1000
0001
0100
0010
0001
0100
0001
,  // measure 10
0100
0010
0001
1000
0001
0100
0010
0001
,  // measure 11
0100
0001
0100
0010
0001
1000
0001
0100
,  // measure 12
0010
0001
0100
0001
0100
0001
1000
0100
,  // measure 13
0010
0000
0100
0001
0000
0001
1000
0100
,  // measure 14
0000
0000
0100
0010
0001
1000
0001
0100
,  // measure 15
0010
0000
0001
0100
0000
0001
0010
0100
,  // measure 16
0010
0001
0100
0010
0001
1000
0001
0100
,  // measure 17
1000
0000
0010
0001
0000
0001
1000
0100
,  // measure 18
0001
0100
0010
0001
1000
0001
0100
0010
,  // measure 19
0100
0001
1000
0001
0010
0100
0001
0010
,  // measure 20
0200
0000
0000
0000
0300
0010
0100
0001
,  // measure 21
2000
0000
0000
0000
3000
0010
0100
0001
,  // measure 22
0000
0010
0100
0010
,  // measure 23
1000
0000
0100
0001
0000
0000
0000
0000
,  // measure 24
2000
0000
0000
0000
3000
1000
0100
0001
,  // measure 25
0020
0000
0000
0000
0030
0100
0001
0010
,  // measure 26
0000
0000
1000
0000
0100
0000
0000
0100
,  // measure 27
0010
0100
0001
1000
0001
0000
0010
0000
,  // measure 28
0010
0100
0100
0010
0001
0010
0001
0010
,  // measure 29
0100
0001
0010
0100
0001
0100
1000
0010
,  // measure 30
0001
0010
0100
0010
0001
0100
0001
0100
,  // measure 31
0010
0001
1000
0001
0100
0010
0001
0100
,  // measure 32
0001
0100
0010
0001
1000
0001
0100
0010
,  // measure 33
0001
1000
0001
0100
0010
0001
0100
1000
,  // measure 34
0001
0000
0100
0000
0010
0000
0010
0100
,  // measure 35
0001
1000
0001
0010
0100
0000
0001
0000
,  // measure 36
1000
0100
0001
0100
0001
0010
0100
0001
,  // measure 37
1000
0001
0010
0100
0001
0100
0001
0010
,  // measure 38
0100
0001
1000
0001
0010
0100
0001
1000
,  // measure 39
0001
0010
0100
0010
0001
0100
0001
0100
,  // measure 40
1000
0010
0100
0000
0001
0100
0001
1000
,  // measure 41
0100
0001
0100
0010
0101
0000
0110
0000
,  // measure 42
0000
0000
0010
0001
0100
0001
0100
0010
,  // measure 43
0001
1000
0001
0100
0110
0000
0101
0000
,  // measure 44
1001
0001
0100
0001
0010
0100
0010
0001
,  // measure 45
1000
0001
0100
0010
0110
0000
0101
0000
,  // measure 46
1001
0010
0100
0001
1000
0001
0010
0100
,  // measure 47
0001
1000
0100
0000
0000
0100
0001
1000
,  // measure 48
0002
0000
0000
0000
0003
0010
0100
0001
,  // measure 49
2000
0000
0000
0000
3000
0100
0001
0100
,  // measure 50
0000
0000
0010
0000
0100
0001
1000
0000
,  // measure 51
0100
0000
0001
1000
0000
0000
0000
0000
,  // measure 52
0200
0000
0000
0000
0300
0010
0100
0001
,  // measure 53
2000
0000
0000
0000
3000
0001
0100
1000
,  // measure 54
0000
0000
0100
0000
0001
0000
0010
0100
,  // measure 55
0001
1000
0001
0010
0100
0000
0001
0000
,  // measure 56
0010
0010
0100
0010
0001
0100
0001
0100
,  // measure 57
1000
0100
0010
0001
0100
0001
0100
0010
,  // measure 58
0001
0100
0001
0100
0010
0001
1000
0001
,  // measure 59
0100
0010
0001
0100
0001
0100
0010
0001
,  // measure 60
1000
0001
0100
0010
0001
0100
0001
0100
,  // measure 61
0001
1000
0001
0100
0010
0100
0001
0100
,  // measure 62
1000
0000
0100
0000
1000
0000
0000
0001
,  // measure 63
0100
0001
1000
0001
0100
0000
0001
0000
,  // measure 64
0100
0010
0100
0001
1000
0001
0010
0100
,  // measure 65
0001
1000
0001
0010
0100
0001
1000
0001
,  // measure 66
0010
0100
0100
0001
0100
0001
1000
0001
,  // measure 67
0010
0100
0001
1000
0001
0010
0100
0001
,  // measure 68
1000
0001
0010
0001
0100
0001
0100
0010
,  // measure 69
0001
1000
0001
0100
0010
0001
0100
0001
,  // measure 70
0100
0010
0001
1000
0001
0100
0010
0001
,  // measure 71
1000
0001
0100
0010
0001
0100
0001
0100
,  // measure 72
1000
0100
0010
0001
1000
0001
0100
0010
,  // measure 73
0001
1000
0001
0100
0010
0001
0100
0001
,  // measure 74
0010
0100
0010
0100
0001
0100
0001
0100
,  // measure 75
0001
0100
0010
0001
1000
0001
0100
0010
,  // measure 76
0001
0100
0001
0100
0010
0001
1000
0001
,  // measure 77
0100
0010
0001
0100
0001
0100
0010
0001
,  // measure 78
1000
0001
0100
0010
0001
0100
1000
0100
,  // measure 79
0010
0001
0100
0001
0100
0010
0001
1000
,  // measure 80
0001
0100
0010
0001
0100
0001
0100
0010
,  // measure 81
0001
1000
0001
0100
0010
0001
0100
0001
,  // measure 82
0100
0010
0001
1000
0001
0100
0010
0001
,  // measure 83
0100
0001
0100
1000
0001
0000
0100
0000
,  // measure 84
1000
0001
0100
0010
0001
0100
0001
0100
,  // measure 85
0001
0100
0001
0010
0100
0001
0100
0001
,  // measure 86
0100
0010
0001
1000
0001
1000
0001
1000
,  // measure 87
0001
0100
0010
0001
0100
0001
0100
0010
,  // measure 88
0001
1000
0001
0100
0010
0001
0100
0001
,  // measure 89
0100
0010
0001
0100
0001
0100
0010
0001
,  // measure 90
1000
0001
0100
0010
1000
0001
0100
0010
,  // measure 91
0001
0100
0001
0100
1000
0000
0100
0000
,  // measure 92
0010
0001
1000
0001
0100
0010
0001
0100
,  // measure 93
0001
0100
1000
0010
0001
0100
0010
0001
,  // measure 94
0100
0001
0100
0010
0001
0100
0001
0100
,  // measure 95
0010
0001
1000
0001
0100
0010
0001
0100
,  // measure 96
0001
0100
0010
0001
1000
0001
0100
0010
,  // measure 97
0001
0100
0001
0100
0010
0001
1000
0001
,  // measure 98
0100
0010
0001
0100
0001
0100
0010
0001
,  // measure 99
1000
0001
0100
0010
0001
0100
0001
0100
,  // measure 100
1000
0000
0000
0000
;
