#TITLE:not me;
#SUBTITLE:;
#ARTIST:ILLIT;
#TITLETRANSLIT:;
#SUBTITLETRANSLIT:;
#ARTISTTRANSLIT:;
#GENRE:;
#CREDIT:;
#BANNER:;
#BACKGROUND:;
#LYRICSPATH:;
#CDTITLE:;
#MUSIC:NOT ME.ogg;
#OFFSET:0.000000;
#SAMPLESTART:100.059883;
#SAMPLELENGTH:12.000000;
#SELECTABLE:YES;
#BPMS:0.000000=160.000000
;
#STOPS:0.000000=0.100000
;
#BGCHANGES:;
#KEYSOUNDS:;
#ATTACKS:;

//---------------dance-single - ----------------
#NOTES:
     dance-single:
     :
     Hard:
     12:
     0.620084,0.719760,0.589542,0.110134,0.000000,670.000000,579.000000,91.000000,17.000000,0.000000,0.000000,0.620084,0.719760,0.589542,0.110134,0.000000,670.000000,579.000000,91.000000,17.000000,0.000000,0.000000:
// measure 0
0000
0000
0000
0000
,  // measure 1
0000
0000
0000
0000
,  // measure 2
0000
0000
0000
0000
,  // measure 3
1001
0000
0000
1000
0001
0100
1001
0000
,  // measure 4
0000
0100
0010
0001
1000
0001
0100
1000
,  // measure 5
0001
1000
0001
0100
0001
0000
0100
0010
,  // measure 6
0100
0000
0001
0000
0100
0000
1000
0001
,  // measure 7
0100
0001
0100
0001
1000
0010
0001
0100
,  // measure 8
0001
0000
0100
0000
0000
0010
0001
0100
,  // measure 9
0001
0100
0010
0001
1000
0001
0100
0010
,  // measure 10
1000
0100
0001
0000
0000
0000
0100
0001
,  // measure 11
1000
0001
0100
0000
0010
0000
0001
0100
,  // measure 12
0001
0100
0010
0010
,  // measure 13
0100
0001
1000
0100
0000
1000
0001
0100
,  // measure 14
1000
0000
0010
0000
0000
0100
0001
1000
,  // measure 15
0001
0010
0001
0100
1000
0010
0001
1000
,  // measure 16
0001
0000
0100
0000
0010
0100
0001
1000
,  // measure 17
0100
0001
0010
0100
0001
0100
0010
0100
,  // measure 18
1000
0001
0100
1000
0000
0010
0001
1000
,  // measure 19
0001
0100
0010
0001
1000
0001
0100
0010
,  // measure 20
2002
3003
0200
0300
,  // measure 21
1001
0000
0001
1000
0001
0100
1000
0000
,  // measure 22
0000
0100
0010
0001
1000
0001
0100
0010
,  // measure 23
1001
0010
0100
0001
1000
0000
0010
0000
,  // measure 24
0000
0100
0010
0001
1000
0001
0100
0010
,  // measure 25
1001
0000
0001
0100
0010
0000
0001
0000
,  // measure 26
0000
0000
0100
0010
0001
1000
0001
0100
,  // measure 27
1000
0100
0001
0020
,  // measure 28
0000
0000
0000
0000
0030
0100
0001
1000
,  // measure 29
0002
0000
0003
0000
0000
0001
0100
0001
,  // measure 30
1000
0000
0100
0000
0000
1000
0001
0100
,  // measure 31
2000
0000
3000
0000
0000
0001
0100
0010
,  // measure 32
0002
0000
0000
0000
0003
0010
0100
0001
,  // measure 33
1000
0100
0001
1000
0100
0001
0100
0010
,  // measure 34
0100
0000
0001
0000
0000
1000
0001
0100
,  // measure 35
2000
0000
0000
0000
3000
0100
0001
0100
,  // measure 36
0001
0001
0100
0010
0001
0100
0001
1000
,  // measure 37
0200
0000
0300
0000
0110
0001
1000
0100
,  // measure 38
0001
0000
0010
0000
0110
0000
0100
0010
,  // measure 39
2000
0000
3000
0000
1001
0001
1000
0001
,  // measure 40
0020
0000
0030
0000
1001
0010
0001
0100
,  // measure 41
2000
0000
0000
3000
1001
0010
0001
0100
,  // measure 42
1000
0000
0010
0000
1001
0000
0001
0100
,  // measure 43
2000
0000
0000
3000
1001
0010
0100
0001
,  // measure 44
1000
0100
0001
1000
0001
0010
0100
0001
,  // measure 45
0110
0000
0000
0001
0100
0001
1001
0000
,  // measure 46
0000
0100
0010
0001
1000
0001
0100
0010
,  // measure 47
1001
0000
0000
0001
0100
0010
1001
0000
,  // measure 48
0000
0100
0010
0001
1000
0001
0100
0010
,  // measure 49
1001
0000
0000
0001
0100
0010
1001
0000
,  // measure 50
0000
0100
0010
0001
1000
0001
0100
0010
,  // measure 51
1001
0000
0000
0001
0100
0010
1001
0000
,  // measure 52
0000
0001
0100
0010
0001
1000
0001
0100
,  // measure 53
0020
0030
0200
0300
,  // measure 54
0010
0001
0100
0010
0001
0000
0001
0010
,  // measure 55
0000
0100
0001
0000
0000
0000
0010
0100
,  // measure 56
0000
0010
0001
1000
0101
0000
0110
0000
,  // measure 57
1001
0000
0000
0000
1001
0000
0010
0100
,  // measure 58
0001
0100
1001
0000
0110
0000
1001
0000
,  // measure 59
0110
0001
1000
0000
0000
0000
0000
0010
,  // measure 60
0000
0100
0001
0010
0100
0000
0010
0000
,  // measure 61
1001
0000
0010
0001
0101
0000
0011
0000
,  // measure 62
0000
1000
0100
0001
0010
0001
0100
0010
,  // measure 63
1001
0000
0100
0001
0110
0000
1001
0000
,  // measure 64
0000
0100
0010
0001
1000
0001
0100
0010
,  // measure 65
1001
0000
0100
0001
1001
0000
0110
0001
,  // measure 66
0010
0100
0010
0100
1001
0000
0110
0000
,  // measure 67
1001
0100
0010
0001
0100
0001
2200
0000
,  // measure 68
0000
0000
0000
0000
3300
1000
0100
0001
,  // measure 69
0110
0000
0000
0000
1001
0010
0100
0001
,  // measure 70
1001
0000
0011
0000
0110
0001
0100
0010
,  // measure 71
1001
0000
0000
0010
0110
0001
1000
0100
,  // measure 72
0011
0000
0000
0010
0110
0010
0001
0100
,  // measure 73
1001
0100
0001
1000
0011
0100
0001
1000
,  // measure 74
0101
0000
1001
0001
1001
0010
0100
0001
,  // measure 75
1001
0000
0000
0010
0110
0001
0100
0010
,  // measure 76
1001
0100
0010
0001
1000
0001
0100
0010
,  // measure 77
1001
0000
0000
0010
0100
0001
1001
0001
,  // measure 78
0011
0100
0010
0001
1000
0001
0100
0010
,  // measure 79
1001
0000
0000
0010
0001
0010
0011
0001
,  // measure 80
0101
0100
0010
0001
1000
0001
0100
0010
,  // measure 81
1001
0000
0000
0010
0100
0001
1001
0001
,  // measure 82
1001
0100
0010
0001
1000
0001
0100
0010
,  // measure 83
1001
0000
0000
0001
0100
0010
1001
0001
,  // measure 84
1001
0001
0010
0100
0010
0001
0100
0010
,  // measure 85
1001
0000
0000
0001
0100
0010
1001
0000
,  // measure 86
0000
0100
0010
0001
1000
0001
0100
0010
,  // measure 87
1001
0000
0000
0001
0100
0010
1001
0000
,  // measure 88
0000
0100
0010
0001
1000
0001
0100
0010
,  // measure 89
1001
0000
0000
0010
0100
0001
1100
0000
,  // measure 90
0000
0000
0000
1000
0001
0100
0001
0010
,  // measure 91
0101
0000
0000
0001
0100
0010
1001
0000
,  // measure 92
0000
0001
0100
0001
1000
0001
0100
0010
,  // measure 93
1001
0000
0000
0001
0100
0010
1001
0001
,  // measure 94
1001
0100
0010
0001
1000
0001
0100
0010
,  // measure 95
1001
0000
0000
0001
0100
0001
0110
0100
,  // measure 96
0101
0010
0001
0100
0010
0001
0100
0010
,  // measure 97
1001
0000
0000
1000
0100
0001
0110
0010
,  // measure 98
0110
0100
0010
0001
1000
0001
0100
0010
,  // measure 99
1001
0000
0000
0001
0100
0010
1001
0000
,  // measure 100
0000
0100
0010
0001
1000
0001
0100
0010
,  // measure 101
1001
0000
0000
0000
;
