#VERSION:0.83;
#TITLE:nosebleedz;
#SUBTITLE:;
#ARTIST:Ray JR & Ripp Flamez;
#TITLETRANSLIT:;
#SUBTITLETRANSLIT:;
#ARTISTTRANSLIT:;
#GENRE:;
#ORIGIN:;
#CREDIT:;
#BANNER:;
#BACKGROUND:;
#PREVIEWVID:;
#JACKET:;
#CDIMAGE:;
#DISCIMAGE:;
#LYRICSPATH:;
#CDTITLE:;
#MUSIC:Ray Jr. feat. Ripp Flames - NozeBleedz.ogg;
#OFFSET:0.000000;
#SAMPLESTART:100.059883;
#SAMPLELENGTH:12.000000;
#SELECTABLE:YES;
#BPMS:0.000=74.000;
#STOPS:0.000=0.100;
#DELAYS:;
#WARPS:;
#TIMESIGNATURES:0.000=4=4;
#TICKCOUNTS:0.000=4;
#COMBOS:0.000=1;
#SPEEDS:0.000=1.000=0.000=0;
#SCROLLS:0.000=1.000;
#FAKES:;
#LABELS:0.000=Song Start;
#BGCHANGES:;
#KEYSOUNDS:;
#ATTACKS:
;

//---------------dance-single - ----------------
#NOTEDATA:;
#CHARTNAME:;
#STEPSTYPE:dance-single;
#DESCRIPTION:;
#CHARTSTYLE:;
#DIFFICULTY:Hard;
#METER:11;
#RADARVALUES:0.393183,0.469370,0.016350,0.000000,0.667633,505.000000,502.000000,3.000000,0.000000,0.000000,0.000000,0.000000,0.000000,0.000000,0.393183,0.469370,0.016350,0.000000,0.667633,505.000000,502.000000,3.000000,0.000000,0.000000,0.000000,0.000000,0.000000,0.000000;
#CREDIT:;
#NOTES:
0000
0000
0000
0000
,
0000
0000
0000
0000
,
0000
0000
0000
0000
,
0000
0000
0000
0000
,
0100
0000
0000
0000
,
0010
0000
0000
0000
0000
0000
0000
0000
0000
0000
0100
0001
1000
0000
0100
0000
,
0010
0000
0000
0000
,
0001
0000
0000
0000
0000
0000
0000
0000
0000
0000
0000
0000
0100
0010
0001
1000
,
0001
0100
0010
0001
1000
0001
0100
1000
0001
0000
0100
0000
0010
0001
0100
0010
,
0001
0100
0010
0001
1000
0001
0100
0010
0100
0000
0001
0000
0010
0100
0010
0001
,
1000
0001
0100
0001
0100
0000
1000
0001
0100
0000
0010
0000
0001
1000
0001
0100
,
1000
0000
0000
0000
0000
1000
0100
0000
0001
0010
1000
0000
0100
0001
1000
0001
,
0010
0001
0100
0010
0001
0100
0001
1000
0100
0000
0010
0000
0001
0100
0010
0001
,
1000
0001
0100
0010
0001
1000
0001
0100
1000
0000
0100
0000
0010
0001
0100
0010
,
0001
1000
0001
0100
1000
0000
0010
0001
1000
0000
0100
0000
0010
0001
0100
0010
,
0001
1000
0001
0100
0010
0000
1000
0001
0100
0000
0010
0000
0000
0000
0010
0000
,
0100
0000
0000
0000
0001
0000
0000
0000
0010
0000
0000
0000
0000
0000
0000
0000
0000
0000
0000
0000
0000
0000
0000
0000
1000
0000
0000
0000
0100
0000
0000
0000
0001
0000
0000
0000
0000
0000
0000
0000
0000
0000
0000
0000
0000
0001
0000
0000
,
0010
0000
0000
0000
1000
0000
0000
0000
0100
0000
0000
0000
0000
0000
0000
0000
0000
0000
0000
0000
0000
0100
0000
0000
0010
0000
0000
0000
0001
0000
0000
0000
0010
0000
0000
0000
0000
0000
0000
0000
0000
0000
1001
0000
0000
0000
0000
0000
,
0100
0010
0001
0000
0000
0000
0010
0001
1000
0000
0000
0000
,
0001
0000
0100
0000
0100
0000
0000
0000
0000
0000
0010
0000
0001
0000
0100
0000
1000
0000
0000
0000
0000
1001
0000
0000
,
0010
0000
0000
0000
0001
0000
0000
0000
0100
0000
0000
0000
0000
0000
0000
0000
0000
0000
0000
0000
0000
1000
0000
0000
0100
0000
0000
0000
0001
0000
0000
0000
0010
0000
0000
0000
0000
0000
0000
0000
0000
0000
0000
0000
0000
0010
0000
0000
,
0001
0000
0000
0000
0100
0000
0000
0000
1000
0000
0000
0000
0000
0000
0000
0000
0000
0000
0000
0000
0000
0010
0000
0000
0001
0000
0000
0000
0100
0000
0000
0000
1000
0000
0000
0000
0000
0000
0000
0100
0000
0000
0001
0000
0000
1000
0000
0000
,
0001
0000
0000
0000
1000
0000
0000
0000
0100
0000
0000
0000
0000
0000
0000
0000
0000
0000
0000
0000
0000
0001
0000
0000
0100
0000
0000
0000
0001
0000
0000
0000
0010
0000
0000
0000
0000
0000
0000
0000
0000
0000
0000
0000
0000
1000
0000
0000
,
0100
0000
0000
0000
0001
0000
0000
0000
0100
0000
0000
0000
0000
0000
0000
0000
0000
0000
0000
0000
0000
0010
0000
0000
0100
0000
0000
0000
0001
0000
0000
0000
0010
0000
0000
0000
0100
0000
0000
0010
0000
0000
0001
0000
0000
1000
0000
0000
,
0001
0100
0010
0001
1000
0001
0100
0001
1000
0000
0100
0000
0100
0010
0001
1000
,
0001
0100
0010
0001
1000
0001
0100
1000
0001
0000
0100
0000
0100
0010
0001
1000
,
0001
0100
0010
0001
1000
0000
0100
0001
1000
0000
0010
0000
0001
1000
0001
0100
,
1000
0000
0000
0000
0000
0000
0000
0000
0000
0000
1000
0000
0100
0001
0010
0100
,
0001
0010
0100
0010
0001
1000
0001
0100
1000
0000
0010
0000
0001
0100
0010
0001
,
1000
0001
0100
0010
0001
1000
0001
0100
1000
0000
0100
0000
0010
0001
0100
0010
,
0001
1000
0001
0100
0010
0000
0100
1000
0001
0000
0000
0000
0010
0001
0100
0010
,
0001
1000
0001
0100
0010
0000
0001
1000
0100
0000
0010
0000
0000
0000
0100
0001
,
0010
0000
0000
0000
1000
0000
0000
0000
0100
0000
0000
0000
0000
0000
0000
0000
0000
0000
0000
0000
0000
0010
0000
0000
0001
0000
0000
0000
0100
0000
0000
0000
1000
0000
0000
0000
0000
0000
0000
0000
0000
0000
0000
0000
0000
0001
0000
0000
,
0100
0000
0000
0000
0010
0000
0000
0000
0001
0000
0000
0000
0000
0000
0000
0000
0000
0000
0000
0000
0000
0010
0000
0000
0001
0000
0000
0000
0100
0000
0000
0000
1000
0000
0000
0000
0000
0000
0000
0000
0000
0000
0000
0000
0000
0010
0000
0000
,
0001
0000
0000
0000
0100
0000
0000
0000
1000
0000
0000
0000
0000
0000
0000
0000
0000
0000
0000
0000
0000
0010
0000
0000
0001
0000
0000
0000
0100
0000
0000
0000
1000
0000
0000
0000
0000
0000
0000
0000
0000
0000
0000
0000
0000
0100
0000
0000
,
0001
0000
0000
0000
1000
0000
0000
0000
0100
0000
0000
0000
0000
0000
0000
0000
0000
0000
0000
0000
0000
0010
0000
0000
0001
0000
0000
0000
0100
0000
0000
0000
1000
0000
0000
0000
0000
0000
0000
0000
0000
0000
0110
0000
0000
0000
0000
0000
,
0001
0000
0000
0000
1000
0000
0000
0000
0100
0000
0000
0000
0000
0000
0000
0000
0000
0000
0000
0000
0000
0010
0000
0000
0100
0000
0000
0000
0001
0000
0000
0000
0100
0000
0000
0000
0000
0000
0000
0000
0000
0000
0000
0000
0000
0010
0000
0000
,
1000
0000
0000
0000
0001
0000
0000
0000
0100
0000
0000
0000
0000
0000
0000
0000
0000
0000
0000
0000
0000
0010
0000
0000
0001
0000
0000
0000
0100
0000
0000
0000
1000
0000
0000
0000
0000
0000
0000
0000
0000
0000
0000
0000
0000
0010
0000
0000
,
0001
0000
0000
0000
0100
0000
0000
0000
1000
0000
0000
0000
0000
0000
0000
0000
0000
0000
0000
0000
0000
0010
0000
0000
0001
0000
0000
0000
0100
0000
0000
0000
1000
0000
0000
0000
0000
0000
0000
0000
0000
0000
0000
0000
0000
0100
0000
0000
,
0001
0000
0000
0000
1000
0000
0000
0000
0100
0000
0000
0000
0000
0000
0000
0000
0000
0000
0000
0000
0000
0010
0000
0000
0001
0000
0000
0000
0100
0000
0000
0000
1000
0000
0000
0000
0000
0000
0000
0100
0000
0000
0001
0000
0000
0010
0000
0000
,
0100
0001
0010
0100
0010
0000
0000
0001
0100
0000
0000
0000
0000
1000
0100
0001
,
1000
0100
0001
0010
0010
0001
0100
0010
0001
0100
0001
1000
0100
0100
0010
0001
,
1000
0001
0100
0001
0010
0000
0000
0100
1000
0000
0000
0000
0001
0100
0010
0001
,
1000
0001
0100
0010
0001
1000
0001
0100
0010
0001
1000
0001
0100
0010
0001
1000
,
0001
0100
0010
0001
1000
0001
0100
0001
1000
0000
0100
0000
0001
0100
0010
0001
,
1000
0001
0100
0010
0001
1000
0001
0100
1000
0000
0000
0000
0100
0010
0001
0100
,
0010
0001
1000
0001
0100
0000
0010
0100
0001
0000
0010
0000
0001
1000
0001
0100
,
0010
0000
0000
0000
0000
0000
0000
0000
0000
0000
0001
0010
0100
0001
1000
0001
,
0010
0100
0010
0001
1000
0001
0100
0001
1000
0000
0100
0000
0010
0100
0001
1000
,
0001
0100
0010
0001
1000
0001
0100
0001
1000
0000
0100
0000
0010
0001
0100
0010
,
0001
1000
0001
0100
1000
0000
0001
0100
1000
0000
0100
0000
0001
1000
0100
0001
,
0100
0001
1000
0001
0010
0000
0001
0010
0100
0000
0001
0000
0000
0000
0010
0000
,
0100
0000
0000
0000
,
1000
0000
0000
0000
,
0001
0000
0000
0000
,
0000
0000
0000
0000
0000
0010
0001
0000
1000
0100
0000
0000
0000
0000
0000
0000
;

//---------------dance-single - ----------------
#NOTEDATA:;
#CHARTNAME:;
#STEPSTYPE:dance-single;
#DESCRIPTION:;
#CHARTSTYLE:;
#DIFFICULTY:Challenge;
#METER:12;
#RADARVALUES:0.446127,0.499652,0.010900,0.000000,0.806610,573.000000,571.000000,2.000000,0.000000,0.000000,0.000000,0.000000,0.000000,0.000000,0.446127,0.499652,0.010900,0.000000,0.806610,573.000000,571.000000,2.000000,0.000000,0.000000,0.000000,0.000000,0.000000,0.000000;
#CREDIT:;
#NOTES:
// measure 0
0000
0000
0000
0000
,  // measure 1
0000
0000
0000
0000
,  // measure 2
0000
0000
0000
0000
,  // measure 3
0000
0000
0000
0000
,  // measure 4
0100
0000
0000
0000
,  // measure 5
0010
0000
0000
0000
0000
0000
0000
0000
0000
0000
1000
0100
0001
0000
0010
0000
,  // measure 6
0100
0000
0000
0000
,  // measure 7
0001
0000
0000
0000
0000
0000
0000
0000
0000
0000
0000
0000
1000
0100
0001
1000
,  // measure 8
0001
0010
0100
0001
1000
0001
0010
0100
0001
0000
0010
0000
0001
0100
0001
0100
,  // measure 9
0010
0001
1000
0001
0100
0010
0001
0100
1000
0000
0010
0000
0010
0001
0100
0010
,  // measure 10
0001
1000
0001
0100
1000
0000
0010
0100
0001
0000
0010
0000
0001
1000
0001
0100
,  // measure 11
1000
0000
0000
0000
0000
0100
0001
0000
1000
0100
0001
0000
0100
0010
0001
0010
,  // measure 12
0100
0001
0100
0010
0001
1000
0001
0100
1000
0000
0010
0000
0001
0100
0010
0001
,  // measure 13
1000
0001
0100
0010
0001
1000
0001
0100
1000
0000
0100
0000
0010
0001
0100
0010
,  // measure 14
0001
1000
0001
0100
1000
0000
0010
0001
1000
0000
0100
0000
0010
0001
0100
0010
,  // measure 15
0001
1000
0001
0100
1000
0000
0100
0001
1000
0000
0100
0000
0000
0000
0010
0000
,  // measure 16
1000
0001
0000
0000
0100
0001
0000
0010
0100
0000
0000
0000
0000
0000
0000
0000
1000
0100
0001
0000
0010
0000
0100
0000
0000
0000
0000
0000
0000
0000
0010
0000
,  // measure 17
0100
0000
0010
0001
0000
0100
0010
0000
0000
0000
0000
0000
0000
1000
0100
0000
0001
0000
0000
0010
0100
0000
0001
0000
0000
0000
0010
0000
0000
0000
0000
0100
,  // measure 18
0010
0000
0000
0000
0000
0000
0000
0000
0000
0000
0000
0000
0000
0000
0000
0000
0001
0000
0000
0000
0000
0000
0000
0000
0000
0000
0000
0000
0000
0000
0000
0000
0010
0000
0000
0000
0000
0000
0000
0000
0000
0000
0000
0000
0000
0000
0000
0000
0000
0000
0000
0000
0000
0000
0000
0000
0000
0000
0000
0000
0000
0000
0000
0000
0000
0000
0000
0000
0000
0000
0000
0000
0000
0000
0000
0000
0000
0000
0000
0000
0000
0000
0000
0000
0000
0000
0000
0000
0000
0000
0000
0000
0000
0000
0000
0000
1000
0000
0000
0000
0000
0000
0000
0000
0000
0000
0000
0000
0001
0000
0000
0000
0000
0000
0100
0000
0000
0000
0000
0000
0000
0000
0000
0000
0000
0000
0000
0000
0000
0000
0000
0000
0000
0000
0000
0000
0000
0000
0010
0000
0000
0000
0000
0000
0000
0000
0000
0000
0000
0000
0000
0000
0000
0000
0000
0000
0000
0000
0000
0000
0000
0000
0000
0000
0000
0000
0000
0000
0000
0000
0000
0000
0000
0000
0000
0000
0000
0000
0000
0000
0000
0000
0000
0000
0000
0000
0000
0000
0000
0000
0000
0000
,  // measure 19
1000
0000
0100
0001
0000
0000
0010
0000
0100
0000
0000
0000
0000
0000
0100
0001
0010
0000
0000
1000
0100
0000
0001
0000
0010
0000
0000
0000
1001
0000
0000
0000
,  // measure 20
0100
0000
0001
1000
0000
0000
0100
0000
0000
0000
0000
0000
0000
0000
0010
0000
0100
0000
0001
1000
0000
0000
0100
0001
0000
0000
0000
0000
0000
0000
1000
0000
,  // measure 21
0100
0000
0001
0010
0000
0000
0100
0000
0000
0000
0000
0000
0000
0000
0001
1000
0100
0000
0000
0001
0000
0000
1000
0000
0100
0000
0001
0000
0010
0000
0100
0000
,  // measure 22
0001
0000
0000
1000
0000
0000
0100
0001
0000
0000
0000
0000
0000
0000
0100
0010
0001
0000
0000
1000
0000
0000
0100
0001
0000
0000
0000
0000
0000
0000
1000
0000
,  // measure 23
0100
0000
0001
0010
0000
0000
0001
1000
0000
0000
0000
0000
0000
0001
0100
0000
0001
0000
0010
0100
0000
0001
1000
0100
0010
0000
0100
0000
0001
0000
1000
0000
,  // measure 24
0001
0010
0100
0010
0001
1000
0001
0100
1000
0000
0100
0000
0001
0100
0010
0001
,  // measure 25
1000
0001
0100
0010
0001
1000
0001
0100
1000
0000
0100
0000
0010
0100
0001
0100
,  // measure 26
0001
1000
0001
0100
1000
0000
0010
0100
0001
0000
0100
0000
0010
0100
0001
0100
,  // measure 27
1000
0000
0000
0000
0000
0000
0000
0000
0000
0000
1001
0000
1000
0010
0100
0001
,  // measure 28
1000
0010
0100
0010
0001
1000
0001
0100
1000
0000
0001
0000
0100
0010
0001
1000
,  // measure 29
0001
0100
0010
0001
1000
0001
0100
0001
1000
0000
0100
0000
0010
0001
0100
0010
,  // measure 30
0001
1000
0001
0100
1000
0000
0010
0100
0001
0000
0100
0000
0010
0001
0100
0010
,  // measure 31
0001
1000
0001
0100
1000
0000
0001
0100
1000
0000
0010
0000
0000
0000
0100
0001
,  // measure 32
0010
0000
0001
0010
0000
0000
0001
0000
0000
0000
0000
0000
0000
0000
1000
0000
0100
0000
0001
0010
0000
0000
0001
0000
0000
0000
0000
0000
0000
0000
1000
0000
,  // measure 33
0100
0000
0010
0001
0100
0000
1000
0100
0000
0000
0000
0000
0000
0010
0100
0000
0001
1000
0000
0100
0000
0001
0000
0000
0000
0000
0000
0000
0000
0000
1000
0000
,  // measure 34
0100
0000
0000
0001
0000
0000
0010
0100
0000
0000
0000
0000
0000
0001
0010
0100
0001
0000
1000
0100
0000
0000
0010
0000
0000
0000
0000
0000
0000
0010
0100
0001
,  // measure 35
1000
0000
0000
0100
0000
0001
1000
0000
0000
0000
0000
0000
0000
0000
0100
0000
0001
0000
1000
0100
0000
0000
0001
0000
0000
0000
0000
0000
1000
0000
0000
0000
,  // measure 36
0100
0000
0001
0010
0000
1000
0000
0100
0000
0000
0000
0000
0000
0000
0100
0001
0010
0000
0000
0000
0001
1000
0000
0000
0100
0000
0000
0000
0000
0000
0010
0000
,  // measure 37
0100
0000
0000
0000
0000
0000
0000
0000
0000
0000
0000
0000
0000
0000
0000
0000
0001
0000
0000
0000
0000
0000
0000
0000
0000
0000
0000
0000
0000
0000
0000
0000
0010
0000
0000
0000
0000
0000
0000
0000
0000
0000
0000
0000
0000
0000
0000
0000
0000
0000
0000
0000
0000
0000
0000
0000
0000
0000
0000
0000
0000
0000
0000
0000
0000
0000
0000
0000
0000
0000
0000
0000
0000
0000
0000
0000
0000
0000
1000
0000
0000
0000
0000
0000
0100
0000
0000
0000
0000
0000
0001
0000
0000
0000
0000
0000
0010
0000
0000
0000
0000
0000
0000
0000
0000
0000
0000
0000
0000
0000
0000
0000
1000
0000
0000
0000
0000
0000
0000
0000
0000
0000
0000
0000
0000
0000
0000
0000
0100
0000
0000
0000
0000
0000
0000
0000
0000
0000
0000
0000
0000
0000
0000
0000
0000
0000
0000
0000
0000
0000
0000
0000
0000
0000
0000
0000
0000
0000
0000
0000
0000
0000
0000
0000
0000
0000
0000
0000
0000
0000
0000
0000
0000
0000
0000
0000
0000
0000
0000
0000
0100
0000
0000
0000
0000
0000
0010
0000
0000
0000
0000
0000
,  // measure 38
0001
0000
0000
1000
0100
0000
0000
0010
0000
0000
0000
0000
0000
0010
0001
0000
1000
0000
0000
0100
0000
0001
0010
0000
0000
0000
0000
0000
0000
0000
0100
0001
,  // measure 39
1000
0100
0000
0000
0010
0100
0001
0010
0100
0000
0000
0000
0000
0000
0100
1000
0001
0010
0100
0000
0001
1000
0000
0000
0010
0000
0100
0000
0001
0000
1000
0000
,  // measure 40
0001
0010
0001
0100
1000
0000
0000
0100
0010
0000
0000
0001
0100
0010
0001
0100
,  // measure 41
0010
0001
0100
0001
0100
0010
0001
1000
0001
0100
0010
0001
1000
0001
0100
0010
,  // measure 42
0001
1000
0001
0100
1000
0000
0000
0001
0100
0000
0000
0000
0001
1000
0001
0100
,  // measure 43
1000
0010
0001
0100
0010
0001
1000
0001
0100
0010
0001
1000
0001
0100
0010
0001
,  // measure 44
1000
0001
0100
0010
0001
1000
0001
0100
1000
0000
0100
0000
0001
0100
0010
0001
,  // measure 45
1000
0001
0100
0010
1000
0100
0001
0100
0001
0000
0000
0000
0010
0001
1000
0001
,  // measure 46
0100
0010
0100
0001
1000
0000
0001
1000
0100
0000
0010
0000
0001
0100
0010
0100
,  // measure 47
0001
0000
0000
0000
0000
0000
0000
0000
0000
0000
0100
0010
0001
1000
0001
0100
,  // measure 48
1000
0001
0100
0010
0001
1000
0001
0100
1000
0000
0010
0000
0100
0001
1000
0001
,  // measure 49
0010
0100
0001
1000
0001
0010
0100
0001
0100
0000
0001
0000
0010
0100
0001
1000
,  // measure 50
0001
0010
0100
0001
1000
0000
0100
0001
0010
0000
0001
0000
0010
0001
0100
0010
,  // measure 51
0001
1000
0001
0100
1000
0000
0001
0100
1000
0000
0010
0000
0000
0000
0100
0000
,  // measure 52
0001
0000
0000
0000
,  // measure 53
1000
0000
0000
0000
,  // measure 54
0100
0000
0000
0000
,  // measure 55
0010
0000
0000
0000
0000
0001
0100
0000
0001
0010
0000
0000
0000
0000
0000
0000
;
