#VERSION:0.83;
#TITLE:nobody here is leaving priscella brook alive;
#SUBTITLE:;
#ARTIST:Her Words Kill;
#TITLETRANSLIT:;
#SUBTITLETRANSLIT:;
#ARTISTTRANSLIT:;
#GENRE:;
#ORIGIN:;
#CREDIT:;
#BANNER:;
#BACKGROUND:;
#PREVIEWVID:;
#JACKET:;
#CDIMAGE:;
#DISCIMAGE:;
#LYRICSPATH:;
#CDTITLE:;
#MUSIC:Nobody Here Is Leaving Priscilla Brook Alive.ogg;
#OFFSET:0.000000;
#SAMPLESTART:100.059883;
#SAMPLELENGTH:12.000000;
#SELECTABLE:YES;
#BPMS:0.000=126.500,
36.000=127.000,
104.000=126.000,
149.000=123.000,
150.000=128.000,
152.000=140.000,
159.000=128.000,
170.000=123.000,
172.000=128.000,
180.000=148.000,
220.000=163.000,
233.000=154.000,
236.000=144.000,
244.000=133.000,
248.000=123.000,
292.000=194.000,
312.000=204.000,
340.000=209.000,
372.000=103.000,
384.000=112.000,
388.000=109.000,
396.000=106.000,
404.000=224.000,
424.000=237.000,
432.000=267.000,
436.000=237.000,
452.000=267.000,
456.000=277.000,
460.000=237.000,
503.000=142.000,
518.000=82.000,
520.000=174.000,
552.000=179.000,
556.000=176.000,
572.000=184.000,
576.000=194.000,
596.000=169.000,
608.000=174.000,
620.000=179.000,
632.000=122.000,
636.000=240.000,
658.000=115.000,
659.000=66.000,
684.000=71.000,
714.000=88.000,
715.000=72.000,
716.000=77.000,
720.000=72.000,
724.000=81.000,
752.000=75.000,
780.000=95.000,
781.000=69.000,
791.000=120.000,
792.000=75.000,
840.000=70.000,
852.000=75.000,
891.500=32.000;
#STOPS:0.000=0.100,
792.000=0.100;
#DELAYS:;
#WARPS:;
#TIMESIGNATURES:0.000=4=4;
#TICKCOUNTS:0.000=4;
#COMBOS:0.000=1;
#SPEEDS:0.000=1.000=0.000=0;
#SCROLLS:0.000=1.000;
#FAKES:;
#LABELS:0.000=Song Start;
#BGCHANGES:;
#KEYSOUNDS:;
#ATTACKS:
;

//---------------dance-single - ----------------
#NOTEDATA:;
#CHARTNAME:;
#STEPSTYPE:dance-single;
#DESCRIPTION:;
#CHARTSTYLE:;
#DIFFICULTY:Hard;
#METER:15;
#RADARVALUES:0.394406,1.552477,0.156565,0.119078,0.351721,1252.000000,1181.000000,71.000000,54.000000,0.000000,0.000000,0.000000,0.000000,0.000000,0.394406,1.552477,0.156565,0.119078,0.351721,1252.000000,1181.000000,71.000000,54.000000,0.000000,0.000000,0.000000,0.000000,0.000000;
#CREDIT:;
#NOTES:
// measure 0
0000
0000
0000
0000
,  // measure 1
0000
0000
0000
0000
,  // measure 2
0000
0000
0000
0000
,  // measure 3
0000
0000
0000
0000
,  // measure 4
1000
0000
0100
0001
0000
0010
0100
0000
0001
0010
0000
0000
0001
0010
0100
0001
,  // measure 5
0100
0000
0010
0100
0000
0001
1000
0000
0100
0001
0000
0000
0100
0001
0100
0001
,  // measure 6
0010
0000
0100
0010
0000
0001
0100
0000
0010
0100
0000
0000
0001
0100
0001
0100
,  // measure 7
1000
0000
0010
0100
0000
0010
0001
0000
0100
0010
0000
0000
0100
0001
0100
0010
,  // measure 8
1000
0000
0000
0101
0000
0000
0000
0000
0000
0000
0000
0000
0000
0000
0000
0000
,  // measure 9
0011
0000
0000
0011
0000
0000
0000
0000
0000
0000
0000
0000
0000
0000
0001
0000
,  // measure 10
0101
0000
0000
1100
0000
0010
0202
0000
,  // measure 11
0000
0000
0000
0303
,  // measure 12
0220
0000
0000
0330
,  // measure 13
0202
0000
0000
0303
,  // measure 14
2002
0000
0000
3003
,  // measure 15
0220
0000
0000
0000
0000
0000
0330
1000
,  // measure 16
0101
0000
0001
0010
1100
0000
0000
0000
,  // measure 17
0000
0000
0000
0110
,  // measure 18
0101
0000
0000
0010
0110
0000
0001
0110
,  // measure 19
0000
0000
0000
0000
,  // measure 20
2002
0000
0000
3003
,  // measure 21
0202
0000
0000
0303
,  // measure 22
2200
0000
0000
3300
,  // measure 23
0220
0000
0000
0330
,  // measure 24
0101
0000
0000
0000
0101
0000
0000
0000
1100
0000
0000
0000
0100
0001
0100
0001
,  // measure 25
0010
0000
0000
0100
0000
0000
0010
0000
0001
0000
0000
0000
0101
0000
0000
0000
,  // measure 26
0110
0101
0000
0000
,  // measure 27
0101
0110
0101
1001
,  // measure 28
0101
0000
0000
0000
0000
0000
0000
0000
0000
0000
0100
0000
0001
0000
0000
0010
,  // measure 29
0000
0000
0100
0000
0000
0001
0000
0000
0010
0000
0000
0000
0000
0000
0000
0000
,  // measure 30
0000
0000
0000
0000
,  // measure 31
0200
0300
0020
0030
,  // measure 32
2000
3000
0000
0000
,  // measure 33
0000
0100
0200
0000
,  // measure 34
0020
0000
0000
0000
,  // measure 35
0000
0000
0000
0330
,  // measure 36
0000
0000
0100
0000
0010
0000
0000
0001
0000
0000
0100
0000
0000
0000
0010
0000
,  // measure 37
0000
0001
0000
0000
0000
0000
0000
0000
,  // measure 38
0000
0000
0000
0200
,  // measure 39
0300
0020
0030
0200
,  // measure 40
0000
0000
0300
1000
,  // measure 41
0002
0000
0200
0000
,  // measure 42
0000
0000
0000
0303
,  // measure 43
0001
0100
0001
0100
0001
1000
0100
0010
0100
0000
0000
0000
0000
0000
0000
0000
,  // measure 44
0000
0000
0000
0000
,  // measure 45
1000
0100
0001
0100
0001
0100
0001
0010
0100
0000
0000
0000
0202
0000
0000
0000
,  // measure 46
0000
0000
0000
0000
,  // measure 47
0303
0000
0110
0000
0101
0000
0100
0010
,  // measure 48
0000
2002
0000
0000
0000
0000
3003
0000
,  // measure 49
1000
0100
0001
0100
0001
0100
0001
0100
0001
0000
0000
0000
2002
0000
0000
0000
,  // measure 50
0000
0000
0000
3003
,  // measure 51
0001
0010
0001
0010
0001
0010
0001
0010
0001
0000
0000
0000
0010
0000
0001
0000
,  // measure 52
0000
0110
0000
0000
0000
0000
0000
0000
,  // measure 53
1000
0001
1000
0001
1000
0001
1000
0001
0010
0000
0000
0000
0220
0000
0000
0000
,  // measure 54
0000
0000
0000
0330
,  // measure 55
1000
0001
1000
0001
1000
0001
1000
0001
1000
0000
0000
0000
0220
0000
0000
0000
,  // measure 56
0000
0000
0000
0330
,  // measure 57
1000
0001
1000
0001
1000
0001
1000
0001
1000
0000
0000
0000
2002
0000
0000
0000
,  // measure 58
0000
0000
0000
3003
,  // measure 59
1000
0001
1000
0001
1000
0001
1000
0001
1000
0000
0000
0000
2002
0000
0000
0000
,  // measure 60
0000
0000
0000
3003
,  // measure 61
2002
0000
0000
0000
,  // measure 62
0000
0000
0000
0000
,  // measure 63
0000
0000
0000
0000
,  // measure 64
0000
0000
0000
3003
,  // measure 65
0101
0000
0000
1100
0000
0000
0101
0000
0000
0000
0000
0000
0000
0000
0000
0000
,  // measure 66
0101
0000
0000
0110
0000
0000
1001
0000
0000
0000
0000
0000
0000
0000
0000
0000
,  // measure 67
0101
0000
0000
0110
0000
0000
1001
0000
0000
0000
0000
0000
0000
0000
0100
0000
,  // measure 68
0010
0000
0000
0110
0000
0000
0000
0000
0000
0000
0000
0000
0000
0000
0000
0000
,  // measure 69
0101
0000
0000
0110
0000
0000
1001
0000
0000
0000
0000
0000
0000
0000
0000
0000
,  // measure 70
0101
0000
0000
0110
0000
0000
1001
0000
0000
0000
0000
0000
0000
0000
0000
0000
,  // measure 71
0101
0000
0000
0110
0000
0000
1001
0000
0000
0000
0000
0000
0000
0000
0000
0000
,  // measure 72
0110
0000
0000
0000
,  // measure 73
1000
0000
0000
2002
0000
0000
0000
0000
0000
0000
0000
0000
0000
0000
0000
0000
,  // measure 74
0000
0000
0000
0000
,  // measure 75
0000
0000
0000
0000
,  // measure 76
0000
0000
0000
3003
,  // measure 77
1000
0100
0001
0000
0001
0100
0010
0000
,  // measure 78
0001
0100
0010
0000
0001
0000
0100
0000
,  // measure 79
0001
0100
0010
0000
0001
0100
1000
0000
,  // measure 80
0001
0100
1000
0000
0001
0100
1000
0100
,  // measure 81
0001
0010
0100
0000
0001
0100
1000
0000
,  // measure 82
0001
1000
0100
0000
0100
0010
0100
0001
,  // measure 83
0100
0010
0001
0000
0001
0100
1000
0000
,  // measure 84
0001
0100
0010
0000
0001
0100
1000
0000
,  // measure 85
0001
0100
0010
0000
0100
0001
0010
0000
,  // measure 86
0001
0100
1000
0000
0001
0100
1000
0000
,  // measure 87
0001
0100
1000
0000
0001
0100
0010
0000
,  // measure 88
0010
0001
0100
0000
0001
0100
0001
0100
,  // measure 89
1000
0010
0100
0000
0010
0100
0001
0000
,  // measure 90
1000
0100
0001
0000
0010
0100
0001
0000
,  // measure 91
0001
0100
1000
0001
0010
0010
0001
0001
,  // measure 92
0100
0010
0001
0100
0001
0100
0001
0100
,  // measure 93
1000
0100
0001
0010
0000
0000
0000
0100
,  // measure 94
0010
0001
0100
1000
0000
0000
0000
1000
,  // measure 95
0100
0000
0010
0100
0000
0000
0000
0000
0000
0000
0000
0000
0000
0000
0000
0000
,  // measure 96
0000
0000
0000
0000
,  // measure 97
0001
0100
0001
0100
0010
0001
0100
0001
,  // measure 98
0100
0010
0001
0100
0001
0100
0001
0100
,  // measure 99
0010
0001
1000
0001
0100
0010
0001
0100
,  // measure 100
0001
0100
0001
0010
0100
0001
0100
0001
,  // measure 101
0100
0010
0001
0100
1000
0000
0001
0100
,  // measure 102
0001
0100
1000
0000
0001
0100
0010
0100
,  // measure 103
1000
0001
0100
0010
0001
0100
0001
0100
,  // measure 104
0001
0100
0001
0100
0001
0100
0001
0100
,  // measure 105
1000
0001
0010
0100
0001
0010
0100
0010
,  // measure 106
0001
0010
0100
0010
0001
0100
0100
0010
,  // measure 107
1000
0100
1000
0001
0010
0001
0100
0001
,  // measure 108
0100
0010
0001
1000
0001
0100
0010
0001
,  // measure 109
0100
0001
0100
0001
0100
0001
0100
0010
,  // measure 110
0001
0100
0001
0100
0001
0100
0001
0100
,  // measure 111
1000
0010
0001
0100
0010
0100
1000
0100
,  // measure 112
0010
0100
0001
0100
0010
0100
0001
0010
,  // measure 113
0010
0001
1000
0001
0100
0001
0100
0010
,  // measure 114
0001
0100
0001
0100
0010
0001
0100
0001
,  // measure 115
0100
0001
0100
0001
0100
0010
0001
1000
,  // measure 116
0001
0100
0010
0001
0100
0001
0100
0010
,  // measure 117
1000
0100
0100
0000
0100
0000
0001
0000
,  // measure 118
0001
0100
0010
0001
,  // measure 119
0100
0001
0100
0001
,  // measure 120
0100
0010
0001
1000
,  // measure 121
0001
0100
0010
0001
,  // measure 122
0100
0001
0100
0001
,  // measure 123
0100
0001
0100
0001
,  // measure 124
0100
0000
0001
0000
0100
0000
0010
0001
,  // measure 125
0100
0001
0100
0001
1000
0000
0010
0000
,  // measure 126
0001
1000
0200
0000
,  // measure 127
0000
0000
0000
0000
,  // measure 128
0000
0000
0000
0000
,  // measure 129
0000
0000
0000
0300
,  // measure 130
0100
0001
0100
0001
0010
0000
0000
0000
0000
0000
0100
0000
0001
0000
1000
0000
,  // measure 131
0100
0001
0100
0000
0000
0000
0000
0000
0100
0000
0000
0000
0010
0000
0000
0000
,  // measure 132
0100
0001
0100
1000
0000
0000
0000
0000
0000
0000
0100
0000
0000
0000
0010
0000
,  // measure 133
0100
0001
0100
1000
0000
0000
0000
0000
0100
0000
0000
0000
0010
0000
0000
0000
,  // measure 134
0001
0100
0001
0100
0000
0000
0000
0000
0000
0000
0010
0000
0000
0000
0010
0000
,  // measure 135
0001
0100
1000
0010
0000
0000
0000
0000
0010
0000
0000
0000
0001
0000
0000
0000
,  // measure 136
0100
0010
0100
0001
0000
0000
0000
0000
0000
0000
0010
0000
0000
0000
0001
0000
,  // measure 137
0100
0010
0100
0001
0000
0000
0000
0000
0110
0000
0000
0000
0000
0000
0000
0000
,  // measure 138
0010
0100
0001
1000
0000
0000
0000
0000
0000
0000
0100
0000
0000
0000
0010
0000
,  // measure 139
1000
0100
0001
0010
0000
0000
0000
0000
0001
0000
0000
0000
0000
0000
0000
0000
,  // measure 140
0010
0100
0001
0010
0000
0000
0000
0000
0000
0000
0001
0000
0000
0000
1000
0000
,  // measure 141
0010
0100
0001
0010
0000
0000
0000
0000
1001
0000
0000
0000
0000
0000
0000
0000
,  // measure 142
0100
0010
0001
0100
0000
0000
0000
0000
0000
0000
0010
0000
0000
0000
0100
0000
,  // measure 143
0010
0001
0100
0010
0000
0000
0000
0000
0010
0000
0000
0000
0000
0000
0000
0000
,  // measure 144
0100
0100
0001
0000
0000
0100
0000
0001
,  // measure 145
0010
0100
0001
0000
0010
0000
0000
0000
,  // measure 146
0100
0001
0010
0000
0000
0100
0000
0010
,  // measure 147
0001
0100
1000
0000
0100
0000
0000
0000
,  // measure 148
0010
0001
0100
0000
0000
0100
0000
0010
,  // measure 149
0001
0100
0001
0000
0100
0000
0000
0000
,  // measure 150
0010
0001
0100
0000
0000
0100
0000
0010
,  // measure 151
0001
0100
1000
0000
0010
0000
0000
0000
,  // measure 152
0001
0100
1000
0000
0000
0100
0000
0010
,  // measure 153
0001
0100
1000
0000
0000
0000
0000
0000
,  // measure 154
1000
0100
0001
0000
0000
0010
0000
0100
,  // measure 155
0001
1000
0100
0000
0000
0000
0000
0000
,  // measure 156
0001
0100
1000
0000
0000
0100
0000
0010
,  // measure 157
0001
0100
1000
0000
0000
0000
0000
0000
,  // measure 158
1010
0110
0101
0110
,  // measure 159
0001
0100
0001
0100
0010
0001
1000
0001
,  // measure 160
0100
0010
0001
0100
0001
0100
0001
0100
,  // measure 161
0001
0100
0001
0100
0001
0100
0001
0010
,  // measure 162
0100
0010
0001
0100
0010
0001
0100
0001
,  // measure 163
0100
0010
0001
0100
0001
0100
0010
0001
,  // measure 164
1000
0001
0100
0010
1001
0000
2002
0000
,  // measure 165
0000
0000
0000
0000
,  // measure 166
0000
0000
0000
0000
,  // measure 167
3003
0000
0100
0001
0000
0000
0000
0000
0000
0000
0100
0010
0000
0000
0000
0000
,  // measure 168
0000
0000
0000
0010
1000
0000
0001
0000
0100
0000
1000
0000
0000
0000
0000
0000
,  // measure 169
0010
0100
0000
0000
0000
0000
0000
0000
0100
1000
0000
0000
0000
0000
0000
0000
,  // measure 170
0000
0001
0000
0000
0000
0010
0000
0001
0000
0100
0000
0000
0000
0000
0000
0100
,  // measure 171
0001
0000
0010
0001
0000
0100
0000
0010
0000
0001
0000
0100
0000
0000
0000
0100
,  // measure 172
0001
0000
1000
0000
0000
0100
0000
0010
0000
0000
0001
0000
1000
0100
0000
0000
,  // measure 173
0000
0000
0000
0000
0000
0000
0010
0001
0000
0100
0000
0010
0000
0000
0001
0000
,  // measure 174
0000
0000
0000
0000
,  // measure 175
0000
0000
2000
0000
0000
0000
0000
0000
0000
0000
0000
0000
0000
0000
0000
3000
,  // measure 176
0000
0000
0000
0100
0000
0020
0000
0000
0000
0000
0000
0000
0000
0000
0000
0030
,  // measure 177
0000
0000
0000
0100
0000
0020
0000
0000
0000
0000
0000
0000
0000
0000
0000
0000
,  // measure 178
0000
0000
0030
0000
0010
0000
0010
0001
,  // measure 179
1000
0100
0010
0100
0010
0001
0100
0001
,  // measure 180
0010
0000
0001
0000
0100
0000
0001
0000
0100
0000
0010
0000
0100
0010
0001
0100
,  // measure 181
0010
0001
1000
0001
0100
0001
0100
0000
0100
0000
0010
0000
0001
0100
0010
0001
,  // measure 182
0100
0000
0010
0000
0001
0000
1000
0000
0001
0000
0100
0000
1000
0000
0000
0000
0100
0000
0010
0001
0010
0100
0001
0100
0010
0000
0100
0000
0010
0000
0001
0000
,  // measure 183
0100
0010
0001
1000
0001
0100
1000
0100
0010
0001
0100
0010
0001
0100
0001
0100
,  // measure 184
0001
0000
0100
0000
0010
0000
0001
0000
1000
0000
0001
0000
0100
0000
0010
0000
0001
0100
0010
0001
0100
0001
0100
0010
0001
1000
0001
0100
1000
0000
0100
0000
,  // measure 185
0010
0001
0100
0010
0001
1000
0001
0100
1000
0100
0010
0001
0100
0010
0001
0100
,  // measure 186
0001
0100
0010
0100
0001
0100
0001
0100
0001
0100
0010
0001
1000
0001
0100
0001
,  // measure 187
0100
0000
0010
1000
0100
0001
0100
0001
0010
0000
0001
0000
0100
0000
0010
0000
0001
0000
0100
0000
0010
0000
0001
0000
1000
0000
0001
0000
0100
0000
0010
0000
,  // measure 188
0001
0100
0001
0100
0010
0001
0100
0001
0100
1000
0100
0010
0100
0001
0100
0010
,  // measure 189
0100
0010
0001
1000
0001
0100
0010
0001
0100
0001
0100
0001
0100
0010
0001
0100
,  // measure 190
0001
0100
0001
0100
0001
0100
0010
0001
0100
0001
0100
0001
0100
0010
0001
1000
,  // measure 191
0001
0100
0010
0001
0100
0001
0100
0001
0100
0010
0100
0001
0100
0001
0100
0001
,  // measure 192
0100
0001
0010
1000
0001
0001
1000
0100
0001
0010
0100
0100
0010
0001
0001
1000
0100
0010
0001
0010
0100
0000
0010
0001
0100
0010
0100
0001
0100
0001
0100
0001
,  // measure 193
0100
0001
0100
0010
0001
1000
0001
0100
0010
0001
0100
0001
0100
1000
0000
0000
0100
0010
0100
0001
0100
0001
0100
0010
0001
1000
0001
0100
0010
0001
0100
0001
,  // measure 194
0100
0010
0001
0010
0001
0100
0010
0001
0100
0001
0100
0001
0100
0010
0001
0100
0001
0100
0010
0001
1000
0001
0100
0010
0001
0100
0001
0100
0010
0001
1000
0001
,  // measure 195
0100
0010
0001
0100
0001
0100
0100
1000
0002
0000
0000
0000
0000
0000
0000
0000
0000
0000
0000
0000
0000
0000
0000
0000
0000
0000
0000
0000
0000
0000
0000
0000
,  // measure 196
0000
0000
0000
0000
,  // measure 197
0000
0000
0000
0000
,  // measure 198
0000
0000
0000
0000
,  // measure 199
0000
0000
0000
0000
,  // measure 200
0000
0000
0000
0000
,  // measure 201
0000
0000
0000
0000
0000
0000
0000
0000
0000
0000
0000
0000
0003
0000
0001
0010
,  // measure 202
0100
0010
0000
0100
0001
0000
0100
0010
0000
0001
0100
0000
0010
0001
1000
0001
,  // measure 203
0100
0010
0000
0000
0000
0000
0000
0100
,  // measure 204
0010
0000
0001
0000
0100
0000
1000
0000
0000
0000
0000
0000
0001
0000
0000
0100
,  // measure 205
0010
0001
0000
0000
0000
0000
0000
0100
,  // measure 206
0010
0000
0001
0000
0100
0000
1000
0000
0000
0000
0100
0000
0010
0000
0000
0001
,  // measure 207
0100
0010
0000
0000
0000
0000
0000
0001
,  // measure 208
0100
0001
0100
1000
0000
0000
0100
0000
,  // measure 209
0000
0001
1000
0000
0000
0000
0000
0000
0100
0000
0000
0000
0000
0000
0000
0010
,  // measure 210
0100
0010
0001
0100
0001
1000
0001
0010
0100
0001
0100
0001
0010
0100
0010
0100
,  // measure 211
0001
0100
0000
0000
0000
0000
0000
0000
,  // measure 212
0000
0000
0000
0000
,  // measure 213
0000
0100
1000
0001
0000
0100
0010
0001
,  // measure 214
0000
0000
0000
0000
0000
0000
0100
0000
0000
0000
0000
0100
0001
0000
0010
0000
,  // measure 215
0000
0000
0000
0000
0000
0000
0000
0000
0000
0000
0000
0000
1000
0100
0000
0000
,  // measure 216
0000
0001
0001
0000
0000
0100
0001
0000
,  // measure 217
0000
0100
0100
0000
0000
0000
0000
0010
,  // measure 218
0001
0000
0000
0000
0000
0000
0100
0000
0000
0000
0000
0000
0000
0000
0000
0000
0000
0000
0000
0000
0100
0000
0000
0001
0000
0000
0000
0000
0000
0000
0000
0000
,  // measure 219
0000
0000
0000
0000
0000
1000
0100
0000
,  // measure 220
0000
0010
0000
0000
0010
0000
0000
0000
0000
0000
0000
0000
0000
0000
0000
0000
,  // measure 221
0000
1000
1000
0000
0000
0100
0000
0000
,  // measure 222
0010
0000
0000
0100
0000
0000
0100
0001
,  // measure 223
0200
0000
0300
0000
;
