#TITLE:no more regrets;
#SUBTITLE:;
#ARTIST:Almost Monday;
#TITLETRANSLIT:;
#SUBTITLETRANSLIT:;
#ARTISTTRANSLIT:;
#GENRE:;
#CREDIT:;
#BANNER:;
#BACKGROUND:;
#LYRICSPATH:;
#CDTITLE:;
#MUSIC:almost monday - no more regrets (official video).ogg;
#OFFSET:0.000000;
#SAMPLESTART:100.059883;
#SAMPLELENGTH:12.000000;
#SELECTABLE:YES;
#BPMS:0.000000=110.000000
,48.000000=108.000000
,80.000000=110.000000
,112.000000=108.000000
;
#STOPS:0.000000=0.150000
;
#BGCHANGES:0.000=almost monday - no more regrets (official video).mp4=1.000=0=0=1=====,
99999=-nosongbg-=1.000=0=0=0 // don't automatically add -songbackground-
;
#KEYSOUNDS:;
#ATTACKS:;

//---------------dance-single - ----------------
#NOTES:
     dance-single:
     :
     Hard:
     12:
     0.446334,0.586477,0.005443,0.016329,0.274876,574.000000,573.000000,1.000000,3.000000,0.000000,0.000000,0.446334,0.586477,0.005443,0.016329,0.274876,574.000000,573.000000,1.000000,3.000000,0.000000,0.000000:
// measure 0
0000
0000
0000
0000
,  // measure 1
0000
0000
0000
0000
,  // measure 2
0000
0000
0000
0000
,  // measure 3
0000
0000
0000
0000
,  // measure 4
0110
0000
0000
0010
0100
0001
0000
0000
,  // measure 5
0000
0001
0100
0010
0001
0100
0001
0100
,  // measure 6
1000
0000
0000
0010
0001
0100
0000
0000
,  // measure 7
0000
0000
0010
0000
0001
0000
0100
0000
0010
0000
0001
0000
1000
0010
0001
0000
,  // measure 8
0100
0000
0000
0001
0100
1000
0000
0000
,  // measure 9
0100
0010
0001
0100
0001
0100
0001
1000
,  // measure 10
0100
0000
0000
0010
0001
1000
0001
0100
,  // measure 11
0020
0000
0000
0000
0030
0000
0100
0001
,  // measure 12
0100
0001
1000
0100
0000
0100
0010
0001
,  // measure 13
0100
0001
0100
0001
1000
0000
0100
0000
,  // measure 14
1000
0001
0100
0010
0000
0100
0010
0001
,  // measure 15
1000
0000
0001
0000
0100
0000
0001
0000
0100
0000
0000
0000
1000
0100
0001
0000
,  // measure 16
0010
0100
0001
0100
0000
1000
0100
0001
,  // measure 17
0010
0010
0001
0100
1000
0000
0020
0000
,  // measure 18
0000
0000
0000
0000
0030
0100
0001
0100
,  // measure 19
0010
0000
0001
0000
0100
0000
0001
0000
1000
0000
0000
0000
0100
0001
0010
0001
,  // measure 20
0100
0000
0000
0010
0100
0001
0000
0000
,  // measure 21
0010
0001
0100
0010
0001
0100
0001
1000
,  // measure 22
0100
0000
0000
0100
0010
0001
0000
0000
,  // measure 23
0000
0000
0001
0000
0100
0000
0010
0000
0001
0000
0100
0000
0001
0010
0100
0000
,  // measure 24
1000
0000
0000
0001
0100
0010
0000
0000
,  // measure 25
0000
0010
0100
0010
0001
1000
0001
0100
,  // measure 26
0010
0000
0000
0001
0100
0010
1000
0100
,  // measure 27
0010
0001
0100
0000
0010
0000
0010
0100
0001
0000
0010
0000
0001
0000
0100
0000
,  // measure 28
1000
0100
0010
0001
0000
0100
0001
1000
,  // measure 29
0001
0010
0001
0100
0001
0000
0100
0000
,  // measure 30
0100
0010
0100
0001
0000
0100
0001
1000
,  // measure 31
0001
0000
0100
0000
0010
0000
0100
0000
0010
0000
0000
0000
0100
0010
0100
0000
,  // measure 32
0001
0100
1000
0001
0000
0010
0100
0100
,  // measure 33
0010
0001
1000
0001
0100
0000
1000
0000
,  // measure 34
0100
0000
0000
0010
0000
0100
0000
0001
0000
0000
0100
0000
0010
0000
0001
0000
,  // measure 35
0100
0000
0010
0000
0001
0000
1000
0000
0001
0000
0000
0000
0100
0010
0001
0010
,  // measure 36
0001
0100
1000
0001
0000
0100
0010
0001
,  // measure 37
0100
0010
0001
1000
0001
0000
0100
0000
,  // measure 38
0010
0001
1000
0001
0000
0010
0100
0001
,  // measure 39
0100
0000
0001
0000
0100
0000
1000
0000
0010
0000
0000
0000
0100
0010
0100
0000
,  // measure 40
0001
0010
0100
0001
0000
0010
0100
0001
,  // measure 41
0100
0001
0100
1000
0001
0000
0100
0000
,  // measure 42
0010
0000
0000
0100
0000
0001
0000
1000
0000
0000
0001
0000
1000
0000
0100
0000
,  // measure 43
0001
0000
0010
0000
0100
0000
0001
0010
1000
0100
0010
0000
0001
0010
0100
0000
,  // measure 44
0100
0010
0100
0001
0100
0000
0010
0001
1000
0010
0100
0000
0100
0010
0001
0100
,  // measure 45
1000
0100
0001
0010
0000
0001
0000
0010
0000
0001
0000
0100
0010
0000
0000
0000
,  // measure 46
0010
0001
0100
1000
0010
0000
0100
0001
1000
0001
0010
0000
0100
0001
1000
0001
,  // measure 47
0010
0100
0001
0010
0000
0100
0000
0010
0000
0001
0000
1000
0100
0001
0100
0001
,  // measure 48
0010
0100
0001
1000
0001
0000
0010
0100
0001
1000
0001
0000
0010
0100
0001
1000
,  // measure 49
0001
0010
0100
0001
0000
0010
0000
0100
0000
0010
0000
0100
0010
0000
0000
0000
,  // measure 50
0001
0100
0001
0100
1000
0000
0001
0100
0001
0100
1000
0000
0100
0000
0001
0000
,  // measure 51
0010
0000
0100
0000
0001
0000
1000
0000
0001
0000
0000
0000
0010
0001
0010
0000
,  // measure 52
0100
0010
0001
0100
0001
0100
0010
0001
,  // measure 53
0100
0001
0100
0010
0001
0100
0001
0100
,  // measure 54
1000
0010
0100
0010
0001
1000
0001
0100
,  // measure 55
0010
0000
0001
0000
0100
0000
0001
0000
0100
0000
0010
0000
0001
0100
1000
0000
,  // measure 56
0010
1000
0001
0100
0010
0001
0100
0001
,  // measure 57
0100
0010
0001
0100
0001
0100
0010
0100
,  // measure 58
1000
0100
0010
0100
0010
0100
0001
0010
,  // measure 59
0001
0100
0010
0001
0100
0001
0100
0010
,  // measure 60
0001
1000
0001
0100
0000
0010
0001
0100
,  // measure 61
0010
0001
0100
0001
0100
0000
1000
0000
,  // measure 62
1000
0001
0100
0010
0000
0001
0100
0010
,  // measure 63
0001
1000
0001
0100
0010
0000
0100
0000
,  // measure 64
0010
1000
0001
0100
0000
0010
0001
0100
,  // measure 65
0010
0001
0100
0001
1000
0000
0200
0000
,  // measure 66
0000
0000
0000
0000
0300
0100
0010
0001
,  // measure 67
1000
0001
0100
0010
0001
0000
0100
0000
,  // measure 68
0100
0001
1000
0100
0010
0000
0100
0001
1000
0001
0010
0000
0100
0001
1000
0001
,  // measure 69
0010
0100
0001
0100
0000
0001
0000
0010
0000
0100
0000
0001
1000
0000
0000
0000
,  // measure 70
0010
0100
0001
1000
0100
0000
0010
0100
0001
1000
0001
0000
0010
0000
0100
0000
,  // measure 71
0001
0000
0010
0000
0100
0000
0010
0000
0100
0000
0000
0000
0010
0100
0001
0000
,  // measure 72
1000
0100
0001
0100
0001
0000
0010
0100
0001
1000
0001
0000
0100
0000
0000
0000
,  // measure 73
0010
0100
0001
1000
0000
0100
0000
0001
0000
0010
0000
0100
0001
0000
0000
0000
,  // measure 74
0010
0001
0100
1000
0010
0000
0010
0100
0001
0100
1000
0000
0010
0000
0100
0000
,  // measure 75
0001
0000
1000
0000
0001
0000
0010
0000
0100
0000
0000
0000
0010
0100
0001
0000
,  // measure 76
0010
0000
0000
0001
0000
0000
0100
0000
0000
0000
0100
0000
0000
0000
0001
0000
,  // measure 77
0100
0000
0000
0010
0000
0000
0001
0000
0000
0000
0100
0000
0000
0000
1000
0000
,  // measure 78
0100
0000
0000
0010
0000
0000
0001
0000
0000
0000
0100
0000
0000
0000
0010
0000
,  // measure 79
0100
0000
0000
0010
0000
0000
0001
0000
0000
0000
0100
0000
0001
0010
0000
0000
;
