#VERSION:0.83;
#TITLE:night at the opera;
#SUBTITLE:;
#ARTIST:Emei;
#TITLETRANSLIT:;
#SUBTITLETRANSLIT:;
#ARTISTTRANSLIT:;
#GENRE:;
#ORIGIN:;
#CREDIT:;
#BANNER:;
#BACKGROUND:;
#PREVIEWVID:;
#JACKET:;
#CDIMAGE:;
#DISCIMAGE:;
#LYRICSPATH:;
#CDTITLE:;
#MUSIC:Night at the Opera.ogg;
#OFFSET:0.000000;
#SAMPLESTART:100.059883;
#SAMPLELENGTH:12.000000;
#SELECTABLE:YES;
#BPMS:0.000=178.000;
#STOPS:;
#DELAYS:;
#WARPS:;
#TIMESIGNATURES:0.000=4=4;
#TICKCOUNTS:0.000=4;
#COMBOS:0.000=1;
#SPEEDS:0.000=1.000=0.000=0;
#SCROLLS:0.000=1.000;
#FAKES:;
#LABELS:0.000=Song Start;
#BGCHANGES:;
#KEYSOUNDS:;
#ATTACKS:
;

//---------------dance-single - ----------------
#NOTEDATA:;
#CHARTNAME:;
#STEPSTYPE:dance-single;
#DESCRIPTION:;
#CHARTSTYLE:;
#DIFFICULTY:Hard;
#METER:12;
#RADARVALUES:0.541699,0.654792,0.238008,0.254235,0.021637,701.000000,657.000000,44.000000,47.000000,0.000000,0.000000,0.000000,0.000000,0.000000,0.541699,0.654792,0.238008,0.254235,0.021637,701.000000,657.000000,44.000000,47.000000,0.000000,0.000000,0.000000,0.000000,0.000000;
#CREDIT:;
#NOTES:
// measure 0
0000
0000
0000
0000
,  // measure 1
0000
0000
0000
0000
,  // measure 2
0000
0000
0000
0000
,  // measure 3
0000
0000
0000
0000
,  // measure 4
1000
1001
0000
1001
,  // measure 5
0010
0000
0000
0100
0000
0000
0001
0000
,  // measure 6
0000
0220
0000
0330
,  // measure 7
0010
0000
0000
0100
0000
0001
0100
0000
,  // measure 8
0110
0000
0000
0000
,  // measure 9
0100
0000
0000
0010
0000
0000
0100
0001
,  // measure 10
0010
0000
0100
0001
1000
0001
0010
0000
,  // measure 11
0100
0010
0001
0100
0001
0100
1000
0000
,  // measure 12
1001
0000
0000
0000
,  // measure 13
0001
0000
0000
0100
0000
0000
0010
0001
,  // measure 14
0100
0000
0001
1000
0100
0001
0010
0010
,  // measure 15
0001
0100
0010
0001
1000
0001
0100
0000
,  // measure 16
1000
0000
0000
0100
,  // measure 17
0001
0000
0000
1000
0000
0000
0100
0010
,  // measure 18
0100
0010
0001
0100
0001
0100
1000
0000
,  // measure 19
0100
0010
0001
0100
0001
0100
1000
0000
,  // measure 20
1001
0000
0000
0000
,  // measure 21
0100
0000
0000
0010
0000
0000
0001
0100
,  // measure 22
0010
0001
1000
0001
0100
0010
0001
0100
,  // measure 23
0001
0100
0010
0001
1000
0001
0100
0000
,  // measure 24
0010
0000
0100
0001
0100
0000
0110
0000
,  // measure 25
0010
0100
0001
0100
0001
0000
0110
0000
,  // measure 26
0000
0000
0010
0100
0001
0000
1001
0000
,  // measure 27
0010
0001
0100
0001
0100
0000
0000
0000
,  // measure 28
0000
0000
0100
0000
0001
0000
1000
0010
,  // measure 29
0100
0000
0010
0001
0100
0000
0000
0000
,  // measure 30
0000
0000
0001
0100
0010
0001
0100
0010
,  // measure 31
0001
1000
0001
0200
0000
0000
0300
0000
,  // measure 32
0220
0000
0330
0010
0220
0000
0330
0000
,  // measure 33
2002
0000
3003
0001
2002
0000
0000
3003
,  // measure 34
0220
0000
0330
0010
0100
0002
0003
1000
,  // measure 35
0010
0200
0300
0010
0001
0200
0000
0300
,  // measure 36
0001
0100
0010
0001
0100
0000
1000
0001
,  // measure 37
0010
0100
0001
0000
0100
0000
1001
0000
,  // measure 38
0010
0100
0001
1000
0001
0000
0010
0100
,  // measure 39
0001
1000
0001
0000
0010
0000
0000
0000
,  // measure 40
1000
0100
0001
0100
0001
0100
0010
0100
,  // measure 41
0010
0001
1000
0001
0100
0000
0100
0010
,  // measure 42
0001
1000
0001
0100
0010
0000
0100
0001
,  // measure 43
0010
0001
0100
0000
,  // measure 44
0100
0010
0001
0100
1000
0000
0100
0010
,  // measure 45
0001
0100
1000
0000
0100
0000
0000
0000
,  // measure 46
0100
0010
0001
0100
1000
0000
0100
0010
,  // measure 47
0001
0100
1000
0000
0010
0000
0000
0000
,  // measure 48
0100
0010
0001
0100
1000
0010
0001
0100
,  // measure 49
0010
0100
0001
0100
1000
0000
0100
0010
,  // measure 50
0001
1000
0001
0100
0010
0000
0100
0001
,  // measure 51
0010
0100
0010
0100
,  // measure 52
0220
0000
0330
0001
2002
0000
3003
0000
,  // measure 53
0220
0000
0330
0010
0220
0000
0330
0000
,  // measure 54
2002
0000
3003
0010
0100
0002
0003
0010
,  // measure 55
0100
0001
0000
0100
0001
1000
0010
0001
,  // measure 56
0110
0000
0000
0000
,  // measure 57
1000
0000
0000
0001
0000
0000
0100
0010
,  // measure 58
0100
0010
0001
0100
1000
0000
1000
0100
,  // measure 59
0001
0000
0010
0010
0100
0000
0010
0000
,  // measure 60
1001
0000
0000
0000
,  // measure 61
0100
0000
0000
0010
0000
0000
0001
0100
,  // measure 62
1000
0010
0001
0100
1000
0000
0010
0001
,  // measure 63
1000
0000
0010
0001
0100
0000
0010
0000
,  // measure 64
1001
0000
0000
0101
,  // measure 65
0101
0000
0000
0010
0000
0000
0100
0010
,  // measure 66
0001
0100
1000
0000
0001
0100
0010
0000
,  // measure 67
1000
0001
0100
0000
0100
0000
0010
0000
,  // measure 68
0100
0000
0000
0010
,  // measure 69
0100
0000
0000
0001
0000
0000
0010
0100
,  // measure 70
0010
0001
1000
0001
0100
0001
0100
0010
,  // measure 71
0001
0100
0010
0001
1000
0001
0100
0000
,  // measure 72
1100
0000
0100
0001
0010
0000
0101
0000
,  // measure 73
0100
0010
0001
0100
1000
0000
0100
0000
,  // measure 74
0000
0000
0001
0100
1000
0000
0110
0000
,  // measure 75
0010
0100
0001
1000
0100
0000
0000
0000
,  // measure 76
0100
0001
0010
0000
0100
0000
1000
0001
,  // measure 77
0010
0001
1000
0001
0100
0000
0000
0000
,  // measure 78
0000
0000
0100
0010
0001
0100
0001
1000
,  // measure 79
0100
0010
0001
0100
1000
0000
0000
0000
,  // measure 80
0202
0000
0303
0001
0202
0000
0303
0000
,  // measure 81
2002
0000
3003
0001
2002
0000
3003
0000
,  // measure 82
0220
0330
0000
0100
0010
0200
0300
0001
,  // measure 83
1000
0200
0300
0001
0100
0002
0000
0003
,  // measure 84
0010
0100
0001
1000
0001
0000
0010
0100
,  // measure 85
0001
1000
0001
0000
0100
0000
0100
0000
,  // measure 86
0100
0010
0001
0100
1000
0000
0100
0010
,  // measure 87
0001
0100
0001
0000
0100
0000
0000
0000
,  // measure 88
0001
0100
0001
0100
1000
0100
0010
0001
,  // measure 89
0100
0010
0100
0100
1000
0000
0010
0001
,  // measure 90
0100
1000
0001
0100
0010
0000
0100
0001
,  // measure 91
0010
0100
0220
0330
,  // measure 92
0001
1000
0001
0100
0001
0000
0010
0001
,  // measure 93
0100
0001
0100
0000
1000
0000
0000
0000
,  // measure 94
0001
1000
0001
0100
0010
0000
0001
0100
,  // measure 95
0001
0100
1000
0000
0010
0000
0000
0000
,  // measure 96
0001
0100
1000
0010
0100
0010
0100
0010
,  // measure 97
0001
0100
0001
0100
1000
0000
0001
0100
,  // measure 98
0010
0001
1000
0001
0100
0000
0010
0100
,  // measure 99
0001
1000
0200
0000
,  // measure 100
0000
0000
0000
0000
,  // measure 101
0000
0000
0000
0000
,  // measure 102
0000
0000
0000
0300
,  // measure 103
0110
0000
0001
0010
0110
0000
0001
0100
,  // measure 104
1001
0000
0010
0001
1001
0000
0100
0001
,  // measure 105
0101
0000
0100
0010
1000
0001
0010
0010
,  // measure 106
0010
0100
0010
0001
0100
0001
0100
1000
,  // measure 107
0010
0000
0000
0100
0000
0000
0001
0000
1000
0000
0000
0100
0000
0000
0001
0000
,  // measure 108
0020
0000
0000
0030
,  // measure 109
0100
0000
0000
1000
0000
0000
0001
0000
0100
0000
0000
0010
0000
0000
0001
0000
,  // measure 110
0020
0000
0000
0030
,  // measure 111
0110
0000
0100
0001
1100
0000
0100
0010
,  // measure 112
1001
0000
0010
0100
0101
0000
0100
0010
,  // measure 113
1001
0000
0010
0100
0001
1000
0001
0000
,  // measure 114
0001
0100
0010
0001
1000
0001
0100
0000
,  // measure 115
0010
0000
0000
0001
0000
0000
0100
0000
0010
0000
0000
0001
0000
0000
0100
0000
,  // measure 116
0020
0000
0000
0000
0000
0000
0030
0001
,  // measure 117
0100
0000
0000
1000
0000
0000
0001
0000
0100
0000
0000
0010
0000
0000
0001
0000
,  // measure 118
0020
0000
0000
0030
,  // measure 119
0010
0001
1000
0001
0100
0000
0001
0100
,  // measure 120
0001
0100
1000
0010
0100
0000
0000
0000
,  // measure 121
0010
0100
1000
0010
0100
0000
0001
0100
,  // measure 122
0001
0100
1000
0000
0010
0000
0000
0000
,  // measure 123
0001
0100
0001
1000
0100
0001
0010
0000
,  // measure 124
0100
0010
0001
0100
0001
0100
1000
0010
,  // measure 125
0001
0100
0001
0100
1000
0000
0001
0100
,  // measure 126
0010
0001
0100
0000
,  // measure 127
0001
0010
0100
0001
1000
0000
0010
0100
,  // measure 128
0001
1000
0001
0000
0010
0000
0000
0000
,  // measure 129
0001
0100
0001
1000
0100
0000
0001
0100
,  // measure 130
0001
1000
0100
0000
0010
0000
0000
0000
,  // measure 131
0001
0100
0010
0001
1000
0001
0100
0000
,  // measure 132
0100
0010
0001
0100
0001
0100
1000
0100
,  // measure 133
0001
0010
0100
0000
0001
1000
0001
0100
,  // measure 134
0001
0001
0100
0000
;
