#VERSION:0.83;
#TITLE:new religon;
#SUBTITLE:;
#ARTIST:Bebe Rexha & Faithless;
#TITLETRANSLIT:;
#SUBTITLETRANSLIT:;
#ARTISTTRANSLIT:;
#GENRE:;
#ORIGIN:;
#CREDIT:;
#BANNER:;
#BACKGROUND:;
#PREVIEWVID:;
#JACKET:;
#CDIMAGE:;
#DISCIMAGE:;
#LYRICSPATH:;
#CDTITLE:;
#MUSIC:Bebe Rexha & Faithless - New Religion.ogg;
#OFFSET:0.000000;
#SAMPLESTART:100.059883;
#SAMPLELENGTH:12.000000;
#SELECTABLE:YES;
#BPMS:0.000=128.000;
#STOPS:0.000=0.150;
#DELAYS:;
#WARPS:;
#TIMESIGNATURES:0.000=4=4;
#TICKCOUNTS:0.000=4;
#COMBOS:0.000=1;
#SPEEDS:0.000=1.000=0.000=0;
#SCROLLS:0.000=1.000;
#FAKES:;
#LABELS:0.000=Song Start;
#BGCHANGES:;
#KEYSOUNDS:;
#ATTACKS:
;

//---------------dance-single - ----------------
#NOTEDATA:;
#CHARTNAME:;
#STEPSTYPE:dance-single;
#DESCRIPTION:;
#CHARTSTYLE:;
#DIFFICULTY:Hard;
#METER:14;
#RADARVALUES:0.631010,0.780937,0.085935,0.017187,0.607276,771.000000,756.000000,15.000000,3.000000,0.000000,0.000000,0.000000,0.000000,0.000000,0.631010,0.780937,0.085935,0.017187,0.607276,771.000000,756.000000,15.000000,3.000000,0.000000,0.000000,0.000000,0.000000,0.000000;
#CREDIT:;
#NOTES:
// measure 0
0000
0000
0000
0000
,  // measure 1
0000
0000
0000
0000
,  // measure 2
1001
0000
0010
0000
0100
0000
0010
0100
0000
0000
0001
0000
0010
0000
0100
0001
,  // measure 3
0000
0000
0100
0000
0010
0000
0100
0001
0000
0100
0001
0000
0010
0000
0100
0000
,  // measure 4
0110
0000
0001
0000
1000
0000
0100
0001
0000
0000
0001
0000
0100
0000
0010
0100
,  // measure 5
0000
0000
0010
0000
0100
0000
0001
1000
0000
0100
0001
0000
0010
0000
0100
0000
,  // measure 6
0000
0000
0010
0000
0100
0000
0001
1000
0000
0000
0100
0000
0010
0000
0100
0001
,  // measure 7
0000
0000
0100
0000
0010
0000
0010
0001
0000
0001
0010
0000
0100
0000
0001
0000
,  // measure 8
1001
0000
0100
0000
0010
0000
0100
0001
0000
0000
0100
0000
0010
0000
0001
0100
,  // measure 9
0000
0000
0010
0000
0100
0000
0001
1000
0000
0100
0001
0000
1000
0000
0100
0000
,  // measure 10
1001
0000
0010
0000
0100
0000
0001
1000
0000
0000
0100
0000
0010
0000
0100
0001
,  // measure 11
0000
0000
0100
0000
0010
0000
0100
0001
0000
0010
0100
0000
0001
0000
1000
0000
,  // measure 12
0110
0000
0001
0000
0010
0000
0100
0001
0000
0000
1000
0000
0100
0000
0010
0001
,  // measure 13
0000
0000
0010
0000
0000
0000
0100
0001
0000
0010
0100
0000
0001
0000
0100
0000
,  // measure 14
0001
0000
0010
0000
0100
0000
0001
1000
0000
0000
0100
0000
0001
0000
0010
0100
,  // measure 15
0000
0000
1000
0000
0001
0000
0100
0010
0000
0001
0100
0000
0010
0000
0100
0000
,  // measure 16
0010
0000
0100
0000
0001
0000
0001
0010
0000
0000
0100
0000
0010
0000
0100
0001
,  // measure 17
0000
0000
0010
0000
0001
0000
0010
0100
0000
0010
0100
0000
0001
0000
1000
0000
,  // measure 18
0100
0000
0010
0000
0100
0000
0001
0100
0000
0000
0010
0000
0100
0000
0001
1000
,  // measure 19
0000
0000
0100
0000
0010
0000
0100
0001
0000
0010
0100
0000
0001
0000
1000
0000
,  // measure 20
0100
0000
0010
0000
0100
0000
0001
0010
0000
0000
0100
0000
0010
0000
0100
0001
,  // measure 21
0000
0000
0100
0000
0010
0000
0001
0100
0000
0010
1000
0000
0100
0000
0001
0000
,  // measure 22
0000
0000
0010
0000
0100
0000
0001
1000
0000
0000
0100
0000
0001
0000
0010
0100
,  // measure 23
0000
0000
0100
0000
0010
0000
0100
0001
0000
0010
0100
0000
0001
0000
1000
0000
,  // measure 24
0110
0000
0001
0000
0100
0000
0001
0010
0000
0000
0100
0000
0010
0000
0001
0100
,  // measure 25
0000
0000
0100
0000
0010
0000
0001
0100
0000
0010
0100
0000
0001
0000
0100
0000
,  // measure 26
0010
0000
0100
0000
0001
0000
0010
0100
0000
0000
0001
0000
0010
0000
0100
0001
,  // measure 27
0000
0000
0000
0010
0001
0010
0100
1000
,  // measure 28
0100
0000
0010
0000
0000
0000
0100
0001
0000
0010
0100
0000
0001
0000
1000
0100
,  // measure 29
0000
0001
0010
0000
0100
0000
0001
1000
0000
0100
0001
0000
0010
0000
0100
0000
,  // measure 30
0001
0000
0010
0000
0100
0000
0001
1000
0000
0100
0001
0000
0010
0000
0100
0001
,  // measure 31
0000
0100
0010
0000
1000
0000
0100
0001
0000
0010
0100
0000
0001
0000
1000
0000
,  // measure 32
0000
0000
0100
0000
0010
0000
0100
0001
0000
1000
0100
0000
0001
0000
0010
0100
,  // measure 33
0000
0001
0100
0000
0010
0000
0100
0001
0000
1000
0100
0000
0001
0000
0010
0000
,  // measure 34
0000
0000
0010
0000
0100
0000
0001
0010
0000
0100
0001
0000
1000
0000
0100
0001
,  // measure 35
0000
0010
0100
0000
0001
0000
1000
0100
0000
0001
0010
0000
0100
0000
0001
0000
,  // measure 36
0100
0000
0010
0000
0100
0000
0001
0010
0000
0000
0100
0000
0001
0000
1000
0100
,  // measure 37
0000
0000
0001
0000
0100
0000
0001
0010
0000
0000
0001
0000
0010
0000
0100
0000
,  // measure 38
1001
0000
0100
0000
0010
0000
0001
0100
0000
0000
0010
0000
0001
0000
0100
1000
,  // measure 39
0000
0000
0010
0000
0001
0000
0100
0000
0010
0000
0001
0000
0100
0000
1000
0010
,  // measure 40
0100
0000
0100
0000
0010
0000
0001
0010
0000
0000
0010
0000
0001
0000
0100
1000
,  // measure 41
0000
0000
0100
0000
0010
0000
0001
0100
0000
0000
0001
0000
0100
0000
0010
0000
,  // measure 42
0101
0000
0100
0000
0010
0000
0001
0100
0000
0000
0100
0000
0010
0000
0001
0010
,  // measure 43
0100
0001
0101
0010
0101
0000
0101
0000
,  // measure 44
1000
0000
0100
0000
0010
0000
0100
0001
0000
0000
1000
0000
0100
0000
0001
0010
,  // measure 45
0000
0000
0100
0000
0001
0000
0010
0100
0000
0001
0010
0000
0100
0000
0001
0000
,  // measure 46
0100
0000
0010
0000
0100
0000
0001
1000
0000
0000
0100
0000
0000
0000
0100
0010
,  // measure 47
0000
0000
0001
0000
0010
0000
0100
0001
0000
1000
0100
0000
0001
0000
0010
0000
,  // measure 48
1000
0000
0100
0000
0001
0000
0010
0100
0000
0000
0001
0000
0010
0000
0100
0001
,  // measure 49
0000
0000
1000
0000
0000
0000
0100
0001
0000
0010
0100
0000
0001
0000
0010
0000
,  // measure 50
0100
0000
1000
0000
0100
0000
0010
0001
0000
0000
1000
0000
0100
0000
0001
0010
,  // measure 51
0200
0000
0000
0000
,  // measure 52
0000
0000
0000
0300
,  // measure 53
0010
0000
0001
0000
1000
0000
0100
0001
0000
0000
0100
0000
0010
0000
0100
0001
,  // measure 54
0000
1000
0000
0100
0001
0010
0100
1000
,  // measure 55
1001
0000
0010
0000
0100
0000
0001
0010
0000
0100
0001
0000
1000
0000
0100
0001
,  // measure 56
0000
0010
0100
0000
0001
0000
1000
0100
0000
0001
0010
0000
0100
0000
0001
0000
,  // measure 57
0000
0000
0100
0000
0001
0000
0010
0100
0000
0001
1000
0000
0100
0000
0001
0010
,  // measure 58
0000
0100
0001
0000
0010
0000
0100
0001
0000
1000
0100
0000
0001
0000
0010
0000
,  // measure 59
0000
0000
1000
0000
0100
0000
0010
0100
0000
0001
1000
0000
0100
0000
0001
0010
,  // measure 60
0000
0100
0001
0000
0010
0000
0100
0001
0000
1000
0100
0000
0001
0000
0010
0000
,  // measure 61
0000
0000
0100
0000
0010
0000
0001
0100
0000
0010
0100
0000
0001
0000
1000
0100
,  // measure 62
0000
0001
0010
0000
0100
0000
0001
0010
0000
0100
0001
0000
0100
0000
1000
0000
,  // measure 63
0100
0000
0000
0001
0000
0000
0010
0000
0100
0000
0000
0000
0001
0000
0010
0000
,  // measure 64
0100
0000
0000
0001
0000
0000
0010
0000
0100
0000
0000
0000
0000
0000
0010
0000
,  // measure 65
0001
0000
0100
0000
0001
0000
0100
0000
1000
0000
0000
0010
0000
0000
0100
0000
,  // measure 66
0001
0000
0010
0000
0000
0000
1000
0100
,  // measure 67
0001
0000
0000
0100
0000
0000
0010
0000
0000
0000
0000
0000
0100
0000
0010
0000
,  // measure 68
0001
0000
0000
1000
0000
0000
0100
0000
0000
0000
0000
0000
0000
0000
0100
0000
,  // measure 69
1000
0000
0000
0001
0000
0000
0100
0000
0010
0000
0000
0001
0000
0000
0100
0000
,  // measure 70
2002
0000
0000
0000
,  // measure 71
3003
0000
0100
0000
0001
0000
0010
0100
0000
0010
0100
0000
0001
0000
1000
0100
,  // measure 72
0000
0001
0010
0000
0100
0000
0001
0100
0000
0001
0010
0000
0100
0000
0010
0000
,  // measure 73
0101
0000
1000
0000
0100
0000
0001
0010
0000
0100
0001
0000
1000
0000
0100
0001
,  // measure 74
0000
0010
0100
0000
0001
0000
1000
0100
0000
0001
0010
0000
0100
0000
0001
0000
,  // measure 75
1001
0000
0010
0000
0010
0000
0001
0100
0000
0000
0010
0000
0100
0000
0001
1000
,  // measure 76
0000
0000
0100
0000
0001
0000
0010
0100
0000
0001
0010
0000
0100
0000
0010
0000
,  // measure 77
0000
0000
0100
0000
0010
0000
0100
0001
0000
0000
0100
0000
0010
0000
0100
0001
,  // measure 78
0000
0000
0100
0000
0010
0000
0001
0100
0000
0010
0001
0000
0100
0000
1000
0000
,  // measure 79
0000
0000
0010
0000
0001
0000
0100
1000
0000
0000
0001
0000
0100
0000
0010
0001
,  // measure 80
0000
0000
0010
0000
0001
0000
0100
1000
0000
0010
0001
0000
0100
0000
0100
0000
,  // measure 81
0000
0000
0001
0000
0100
0000
0001
0010
0000
0000
0010
0000
0001
0000
1000
0100
,  // measure 82
0010
0000
0100
0000
0001
0000
1000
0100
0010
0001
0010
0000
0100
0000
0001
0000
,  // measure 83
0010
0001
0100
0010
0001
1000
0001
0100
0010
0100
0001
0100
1000
0000
0100
0001
,  // measure 84
0010
0100
0001
0010
0100
0010
0001
1000
0001
0100
0010
0001
0100
0000
0010
0000
,  // measure 85
0100
0001
1000
0001
0000
0100
0001
1000
0001
0010
0100
0001
0010
0000
0100
0001
,  // measure 86
1000
0100
0001
1000
0001
0010
0100
0001
1000
0001
0010
0100
0001
0000
0010
0000
,  // measure 87
0100
0010
0100
0010
0001
0100
0010
0100
0010
0100
0001
0100
1000
0000
0100
0001
,  // measure 88
0010
0100
0010
0001
0100
0010
0001
1000
0001
0100
0010
0001
0100
0000
1000
0000
,  // measure 89
0100
0001
0100
0001
1000
0001
0010
0100
0010
0100
0010
0100
0010
0000
0100
0001
,  // measure 90
0010
0001
0100
0001
0100
0010
0001
1000
0001
0100
0010
0001
0100
0000
1000
0000
;
