#TITLE:never do;
#SUBTITLE:;
#ARTIST:Charlieonafriday;
#TITLETRANSLIT:;
#SUBTITLETRANSLIT:;
#ARTISTTRANSLIT:;
#GENRE:;
#CREDIT:;
#BANNER:;
#BACKGROUND:;
#LYRICSPATH:;
#CDTITLE:;
#MUSIC:charlieonnafriday - Never Do (Official Visualizer).ogg;
#OFFSET:0.000000;
#SAMPLESTART:100.059883;
#SAMPLELENGTH:12.000000;
#SELECTABLE:YES;
#BPMS:0.000000=124.999992
;
#STOPS:0.000000=0.900000
;
#BGCHANGES:;
#KEYSOUNDS:;
#ATTACKS:;

//---------------dance-single - ----------------
#NOTES:
     dance-single:
     :
     Hard:
     13:
     0.529693,0.571160,0.091245,0.000000,0.352536,447.000000,436.000000,11.000000,0.000000,0.000000,0.000000,0.529693,0.571160,0.091245,0.000000,0.352536,447.000000,436.000000,11.000000,0.000000,0.000000,0.000000:
// measure 0
0000
0000
0000
0000
,  // measure 1
0000
0000
0000
0000
,  // measure 2
0000
0000
0000
0000
,  // measure 3
0000
0000
0000
0000
,  // measure 4
1000
0010
0100
0010
0100
0001
0100
0001
0100
0000
0000
0010
0000
0000
0000
0000
,  // measure 5
0100
0010
0001
0100
1000
0000
0001
0000
0100
0000
0000
0010
0000
0000
0000
0000
,  // measure 6
0010
0001
0100
0010
0001
0000
0100
0000
0010
0000
0000
0100
0000
0000
0001
0000
,  // measure 7
0010
0001
1000
0001
0100
0000
0010
0100
0001
0000
0000
0010
0000
0000
0000
0000
,  // measure 8
0010
0100
0001
1000
0001
0000
0010
0000
0100
0000
0000
0000
1001
0000
0000
0000
,  // measure 9
0100
0010
0001
0100
0001
0100
0001
0100
1000
0000
0000
0000
0000
0000
0000
0000
,  // measure 10
0100
0001
0010
0000
0100
0001
1000
0001
0010
0000
0100
0010
0001
0010
0100
0000
,  // measure 11
0010
0000
0001
0100
0010
0100
0001
0010
1000
0000
0000
0000
0100
0000
0000
0000
,  // measure 12
0010
0001
0100
0100
0010
0001
0100
0001
,  // measure 13
0100
0010
0001
0100
0001
0100
0001
0100
,  // measure 14
1000
0100
0010
0001
1000
0001
0100
0010
,  // measure 15
0001
0100
0001
0100
0010
0001
0100
0100
,  // measure 16
1001
0000
0000
0000
0000
0000
0000
0100
,  // measure 17
0010
0001
1000
0001
0100
0000
0000
0000
,  // measure 18
0100
0001
0100
0010
,  // measure 19
0101
0101
0101
0100
,  // measure 20
0010
0000
0000
0000
0001
0000
0000
0000
0100
0000
0000
0000
0001
0000
0000
1000
,  // measure 21
0100
0000
0001
0000
0010
0000
0000
0100
0010
0000
0001
0000
0100
0000
0010
0000
,  // measure 22
0001
0100
0001
0100
0010
0001
0100
0001
,  // measure 23
0100
0010
0001
1000
0001
0100
0001
0000
,  // measure 24
0100
0000
0000
0000
0001
0000
0000
0000
0100
0000
0000
0000
0010
0000
0000
0100
,  // measure 25
0001
0000
1000
0000
0100
0000
0000
0010
0100
0000
0001
0000
0100
0000
0010
0000
,  // measure 26
0001
0100
0001
0100
0010
0001
1000
0001
,  // measure 27
0100
0010
0001
0100
0001
0100
1000
0000
,  // measure 28
0110
0000
0000
0010
1000
0001
0100
0000
0100
0001
0000
0010
0000
0000
0010
0100
,  // measure 29
0001
1000
0001
0000
0100
0000
0010
0000
0100
0001
0010
0000
0010
0000
0100
0001
,  // measure 30
0000
0000
0001
0000
0100
0000
0010
0000
1000
0100
0000
0001
0000
0010
0100
0000
,  // measure 31
0001
0000
0010
0000
0010
0100
0001
0000
1000
0100
0001
0000
0001
0000
0010
0100
,  // measure 32
0001
0000
0000
0000
0000
0001
0010
0100
0001
0000
1000
0100
0000
0000
0010
0000
,  // measure 33
0000
0000
0100
0001
0010
0000
0001
0000
0100
0000
0010
0001
0010
0100
0001
1000
,  // measure 34
0100
0000
0010
0000
0001
0000
0010
0000
0001
0000
0000
0000
0000
1000
0100
0001
,  // measure 35
0010
0000
0010
0001
0100
0000
0001
0000
0010
0000
0100
0000
0001
0000
0000
0000
,  // measure 36
0011
0001
0100
0100
0010
0001
0100
0010
,  // measure 37
0001
0100
0010
0001
0100
0001
0100
0001
,  // measure 38
0100
0010
0001
0100
0001
0100
0010
0001
,  // measure 39
1000
0001
0100
0010
0001
0100
0001
0100
,  // measure 40
1001
0000
0000
0000
0000
0000
0000
0100
,  // measure 41
0001
1000
0001
0010
0100
0000
0000
0000
,  // measure 42
0100
0001
0100
0010
,  // measure 43
0101
0110
0110
0010
,  // measure 44
0001
0000
0000
0000
0001
0000
0000
0000
0100
0000
0000
0000
0010
0000
0000
0100
,  // measure 45
0001
0000
0010
0000
0100
0000
0000
0001
0010
0000
0100
0000
0010
0000
0100
0000
,  // measure 46
0001
1000
0001
0010
0010
0001
0100
0001
,  // measure 47
0100
0010
0001
0100
0001
0100
1000
0000
,  // measure 48
0010
0000
0000
0000
0100
0000
0000
0000
0001
0000
0000
0000
1000
0000
0000
0010
,  // measure 49
0100
0000
0001
0000
0010
0000
0000
0100
0001
0000
0010
0000
0100
0000
0001
0000
,  // measure 50
1000
0001
0010
0100
0001
0010
0100
0001
,  // measure 51
0100
0010
0001
1000
0001
0100
0010
0000
,  // measure 52
0001
0010
0100
0000
0000
0000
0010
0100
0001
0000
0000
0000
1000
0100
0001
0000
,  // measure 53
0010
0001
0100
0000
0000
0000
0010
0001
0100
0000
0000
0000
0010
0001
0100
0000
,  // measure 54
0010
0100
0001
0000
0100
0000
0010
0100
0001
0000
0100
0000
0001
0010
0100
0000
,  // measure 55
0001
0010
0100
0000
0010
0000
0001
0100
1000
0000
0001
0000
0100
0001
0010
0000
,  // measure 56
0010
0001
0100
0000
0000
0000
0100
0001
0010
0000
0000
0000
0100
0001
0010
0000
,  // measure 57
0100
0001
0010
0000
0000
0000
1000
0100
0001
0000
0000
0000
0010
0100
0001
0000
,  // measure 58
1000
0010
0100
0000
0010
0000
0001
0100
1000
0000
0100
0000
0010
0001
0100
0000
,  // measure 59
0010
0001
0100
0000
1000
0000
0100
0010
0001
0000
0100
0000
0010
0100
0001
0000
;
