#VERSION:0.83;
#TITLE:nervous;
#SUBTITLE:;
#ARTIST:STARKIDS;
#TITLETRANSLIT:;
#SUBTITLETRANSLIT:;
#ARTISTTRANSLIT:;
#GENRE:;
#ORIGIN:;
#CREDIT:;
#BANNER:;
#BACKGROUND:;
#PREVIEWVID:;
#JACKET:;
#CDIMAGE:;
#DISCIMAGE:;
#LYRICSPATH:;
#CDTITLE:;
#MUSIC:STARKIDS - nervous (Official Music Video).ogg;
#OFFSET:0.000000;
#SAMPLESTART:100.059883;
#SAMPLELENGTH:12.000000;
#SELECTABLE:YES;
#BPMS:0.000=177.000,
160.000=88.500,
176.000=177.000,
192.000=88.500,
196.000=177.000,
204.000=88.500,
212.000=177.000,
276.000=88.500,
292.000=177.000,
324.000=88.500,
328.000=177.000;
#STOPS:0.000=0.100;
#DELAYS:;
#WARPS:;
#TIMESIGNATURES:0.000=4=4;
#TICKCOUNTS:0.000=4;
#COMBOS:0.000=1;
#SPEEDS:0.000=1.000=0.000=0;
#SCROLLS:0.000=1.000;
#FAKES:;
#LABELS:0.000=Song Start;
#BGCHANGES:0.000=STARKIDS - nervous (Official Music Video).mp4=1.000=0=0=1=====,
99999=-nosongbg-=1.000=0=0=0 // don't automatically add -songbackground-
;
#KEYSOUNDS:;
#ATTACKS:
;

//---------------dance-single - ----------------
#NOTEDATA:;
#CHARTNAME:;
#STEPSTYPE:dance-single;
#DESCRIPTION:;
#CHARTSTYLE:;
#DIFFICULTY:Hard;
#METER:16;
#RADARVALUES:0.819894,1.100761,0.039243,0.004905,0.367901,1170.000000,1162.000000,8.000000,1.000000,0.000000,0.000000,0.000000,0.000000,0.000000,0.819894,1.100761,0.039243,0.004905,0.367901,1170.000000,1162.000000,8.000000,1.000000,0.000000,0.000000,0.000000,0.000000,0.000000;
#CREDIT:;
#NOTES:
// measure 0
0000
0000
0000
0000
,  // measure 1
0000
0000
0000
0000
,  // measure 2
0000
0000
0000
0000
,  // measure 3
0000
0000
0000
0000
,  // measure 4
0100
0000
0001
1000
0100
0001
0100
0000
,  // measure 5
0001
0000
0010
0100
0001
1000
0001
0000
,  // measure 6
0010
0000
0100
0001
1000
0001
0010
0000
,  // measure 7
0010
0000
0001
1000
0001
0100
1000
0001
,  // measure 8
0010
0001
0100
0010
0001
1000
0001
0100
,  // measure 9
0001
1000
0100
1000
0100
0001
0100
0010
,  // measure 10
0001
1000
0001
0100
0010
0001
1000
0001
,  // measure 11
0100
0010
0001
1000
0001
0100
0010
0001
,  // measure 12
1000
0001
0100
0010
0001
1000
0001
0100
,  // measure 13
0010
0001
1000
0001
0100
0010
0001
1000
,  // measure 14
0001
0100
0010
0001
1000
0001
0100
0010
,  // measure 15
0001
1000
0001
0100
0010
0001
1000
0001
,  // measure 16
0100
0010
0001
1000
0001
0100
0010
0001
,  // measure 17
1000
0001
0100
0010
0001
1000
0001
0100
,  // measure 18
0010
0001
1000
0001
0100
0010
0001
1000
0001
0100
0010
0001
1000
0001
0100
1000
,  // measure 19
0100
0010
0001
1000
0001
0100
0010
0001
1000
0001
0100
0010
0001
0100
0001
0100
,  // measure 20
1000
0010
0001
0100
0100
0010
0010
0001
0001
0100
1000
0010
0001
0010
0100
0001
,  // measure 21
0010
0001
0100
0010
0001
0100
0001
0100
0010
0001
1000
0001
0100
0010
0001
1000
,  // measure 22
0001
0100
0010
0001
1000
0001
0100
0010
0001
1000
0001
0100
0010
0001
1000
0001
,  // measure 23
0100
0010
0001
1000
0001
0100
0010
0001
1000
0001
0100
0010
1000
0100
0001
0100
,  // measure 24
0001
0010
0001
0100
0010
0001
0100
0001
,  // measure 25
0100
0010
0001
1000
0001
0100
0010
0001
,  // measure 26
0100
0001
0100
0010
0001
1000
0001
0100
,  // measure 27
0010
0001
1000
0001
0100
0010
0001
0100
,  // measure 28
0001
0100
0001
0100
0010
0001
0100
0001
,  // measure 29
0100
0010
0001
1000
0001
0100
0010
0001
,  // measure 30
1000
0001
0100
0010
0001
0100
0001
0100
,  // measure 31
0010
0001
1000
0001
0100
0010
0001
1000
,  // measure 32
0001
0100
0010
0001
1000
0001
0100
0010
,  // measure 33
0001
1000
0001
0100
0010
0001
1000
0001
,  // measure 34
0100
0010
0001
0010
0001
0100
0010
0001
,  // measure 35
1000
0001
0100
0010
0001
1000
0001
0100
,  // measure 36
0010
0001
1000
0001
0100
0010
0001
1000
,  // measure 37
0001
0100
0010
0001
1000
0001
0100
0010
,  // measure 38
0001
1000
0001
0100
0010
0001
1000
0001
,  // measure 39
0100
0010
0001
1000
0001
0100
1000
0000
,  // measure 40
0100
0001
1000
0010
0001
0100
1000
0000
0000
0000
1000
0001
0100
0001
1000
0100
,  // measure 41
0000
0010
0001
1000
0001
0100
1000
0000
0000
0000
0010
0001
1000
0001
0100
1000
,  // measure 42
0000
0010
0001
1000
0001
0100
1000
0000
0100
0001
1000
0001
0000
0000
0001
1000
,  // measure 43
0001
0100
1000
0000
0100
0010
0001
1000
0001
0100
1000
0000
0001
1000
0001
0100
,  // measure 44
1000
0100
0010
0001
0100
0000
0010
0000
1000
0000
0100
0000
0001
0000
0010
0000
,  // measure 45
0001
1000
0001
0100
1000
0000
0100
0010
,  // measure 46
1000
0100
0001
0100
0001
0000
0100
0000
1000
0000
0100
0000
0001
0000
0100
0000
,  // measure 47
0001
0001
0100
0000
1000
0000
0100
0001
,  // measure 48
1000
0100
0001
1000
0001
0100
0010
0001
0100
0001
0100
0000
1000
0100
0001
1000
,  // measure 49
0001
0100
0001
0100
1000
0000
0100
0010
,  // measure 50
0001
1000
0001
0100
1000
0001
1000
0000
,  // measure 51
1000
0000
0000
0000
0000
0000
0100
0001
0100
0000
0000
0000
0000
0000
0001
0100
,  // measure 52
1000
0000
0000
0000
0000
0000
0001
0100
2000
0000
0000
3000
0100
0001
1000
0001
,  // measure 53
0010
0100
0001
0010
0001
1000
0001
0100
,  // measure 54
0010
0001
0100
0001
0100
0010
0001
1000
,  // measure 55
0001
0100
0010
0001
1000
0001
0100
0010
,  // measure 56
0001
1000
0001
0100
0010
0001
1000
0001
,  // measure 57
0100
0010
0001
1000
0001
0100
0010
0001
,  // measure 58
1000
0001
0100
0001
0100
0010
0001
0100
,  // measure 59
0001
0100
0010
0001
1000
0001
0100
0010
,  // measure 60
0001
1000
0001
0100
0010
0001
1000
0001
,  // measure 61
0100
0010
0001
1000
0001
0100
0010
0001
,  // measure 62
0100
0001
0100
0010
0001
1000
0001
0100
,  // measure 63
0010
0001
1000
0001
0100
0010
0001
1000
,  // measure 64
0001
0100
0010
0001
1000
0001
0100
0010
,  // measure 65
0001
0100
0001
0100
0010
0001
1000
0001
,  // measure 66
0100
0010
0001
1000
0001
0100
0010
0001
,  // measure 67
1000
0001
0100
0100
0001
0010
0010
0001
,  // measure 68
1000
0001
0100
0010
0001
1000
0001
0100
,  // measure 69
1000
0000
0010
0000
0000
0000
1000
0000
0100
0001
0100
0001
1000
0100
0001
0000
,  // measure 70
0100
0000
0010
0000
0000
0000
1000
0000
0100
0000
0010
0100
0000
0001
1000
0010
,  // measure 71
0100
0001
0010
0100
0001
0000
1000
0100
0000
0001
1000
0010
0100
0010
0001
0100
,  // measure 72
1000
0000
0001
1000
0010
0001
0100
0000
1000
0000
0100
0001
0000
1000
0100
0000
,  // measure 73
0100
0001
0100
0001
1000
0001
0001
0100
,  // measure 74
0010
0001
1000
0001
0100
0010
0001
1000
,  // measure 75
0001
0100
0010
0001
1000
0001
0100
0010
,  // measure 76
0001
1000
0001
0100
0010
0001
1000
0001
,  // measure 77
0100
0010
0001
1000
0001
0100
0001
0100
,  // measure 78
0001
0100
0010
0001
1000
0001
0100
0010
,  // measure 79
0001
1000
0001
0100
0010
0001
1000
0001
,  // measure 80
0100
0001
0010
0001
0001
0100
1000
0010
0001
0100
0100
0010
0010
1000
0001
0100
,  // measure 81
1000
0000
0010
0000
0000
0100
0001
1000
0100
0001
1000
0001
0010
1000
0100
0000
,  // measure 82
0100
0010
0100
0001
0100
0010
0100
0001
,  // measure 83
0100
0001
0100
0001
0100
0010
0001
1000
,  // measure 84
0001
0100
0010
0001
0100
0001
0100
0001
,  // measure 85
0100
0001
0100
0010
0001
0100
0001
0100
,  // measure 86
0010
0001
0100
0001
0100
0001
0100
1000
,  // measure 87
0001
0100
0010
0001
0100
0001
0100
0010
,  // measure 88
0001
1000
0001
0100
0010
0001
1000
0001
,  // measure 89
0100
0010
0001
1000
0001
0100
0010
1000
,  // measure 90
0001
0100
0010
0001
0100
0001
0100
0010
,  // measure 91
0001
1000
0001
0100
0010
0001
1000
0001
,  // measure 92
0100
0010
0001
1000
0001
0100
0010
0001
,  // measure 93
1000
0001
0100
0010
0001
1000
0001
0100
,  // measure 94
0010
0001
1000
0001
0100
0010
0001
1000
,  // measure 95
0001
0100
0010
0001
1000
0001
0100
0010
,  // measure 96
1001
0000
0110
0000
0101
0000
0101
0001
,  // measure 97
1000
0010
0100
0000
0110
0001
1000
0001
,  // measure 98
0110
0000
1001
0000
0101
0000
1000
0100
,  // measure 99
0001
0010
0100
0000
1000
0100
0001
1000
,  // measure 100
0010
0001
1000
0001
0100
0010
0001
1000
,  // measure 101
0001
0100
0010
0001
1000
0001
0100
0010
,  // measure 102
0001
0100
0010
0001
0100
0001
0100
0010
0001
1000
0001
0100
0010
0001
1000
0001
,  // measure 103
0100
0010
0001
1000
0001
0100
0010
0001
1000
0001
0100
0010
0001
1000
0001
0100
,  // measure 104
1000
0010
0001
1000
,  // measure 105
0001
0000
0100
0000
0001
0010
0100
0001
,  // measure 106
1000
0010
0001
0100
0001
0100
0010
0001
,  // measure 107
1000
0001
0100
0010
0001
1000
0001
0100
,  // measure 108
1000
0010
0100
0001
0100
0001
1000
0001
,  // measure 109
1000
0001
0100
0010
0001
0100
0001
0100
,  // measure 110
0001
1000
0010
0100
0010
0001
1000
0001
,  // measure 111
0100
0010
0001
0100
0001
0100
0010
0001
,  // measure 112
1000
0001
0100
0010
0001
0100
0001
0100
,  // measure 113
0010
0001
1000
0001
0100
0010
0100
0001
,  // measure 114
0100
0010
0001
1000
0001
0100
0010
0001
,  // measure 115
1000
0001
0100
0010
0001
1000
0001
0100
,  // measure 116
0010
0001
0100
0001
0100
0010
0001
1000
,  // measure 117
0001
0100
0010
0001
1000
0001
0100
0010
,  // measure 118
0001
0100
0010
0001
0100
0001
0100
0010
0001
1000
0001
0100
0010
0001
1000
0001
,  // measure 119
0100
0010
0001
1000
0001
0100
0010
0001
1000
0001
0100
0010
0001
1000
0001
0100
,  // measure 120
1000
0001
1000
0001
0100
0010
0001
0100
,  // measure 121
0001
0100
0010
0001
0100
0001
0100
0010
,  // measure 122
0001
1000
0001
0100
0010
0001
0100
0001
,  // measure 123
0100
0010
0001
0100
1000
0100
0010
0100
,  // measure 124
0001
0100
0010
0001
1000
0001
0100
0010
,  // measure 125
0001
0100
0001
0100
0010
0001
1000
0001
,  // measure 126
0100
0010
0001
0100
0001
0100
0010
0010
,  // measure 127
0010
0001
1000
0001
0100
0010
0001
0100
,  // measure 128
0001
0100
0010
0001
0100
0001
0100
0010
,  // measure 129
0001
1000
0001
0100
0010
0001
0100
0001
,  // measure 130
0100
0010
0001
1000
0001
0100
0010
0001
,  // measure 131
0100
0010
0001
0100
0010
0010
0001
1000
,  // measure 132
0001
0100
0010
0001
0100
0010
0001
1000
,  // measure 133
0001
0100
0001
0010
0001
0100
1000
0001
,  // measure 134
0100
0010
0001
0100
0001
0100
0010
0001
,  // measure 135
1000
0001
0100
0010
0001
1000
0001
0100
,  // measure 136
1000
0000
0000
0000
;
