#TITLE:need for speed;
#SUBTITLE:;
#ARTIST:Unknown artist;
#TITLETRANSLIT:;
#SUBTITLETRANSLIT:;
#ARTISTTRANSLIT:;
#GENRE:;
#CREDIT:;
#BANNER:;
#BACKGROUND:;
#LYRICSPATH:;
#CDTITLE:;
#MUSIC:Kim Petras - Need For Speed (Official Music Video).ogg;
#OFFSET:0.000000;
#SAMPLESTART:100.059883;
#SAMPLELENGTH:12.000000;
#SELECTABLE:YES;
#BPMS:0.000000=121.000000
,264.000000=60.500000
,296.000000=121.000000
;
#STOPS:0.000000=0.100000
;
#BGCHANGES:0.000=Kim Petras - Need For Speed (Official Music Video).mp4=1.000=0=0=1=====,
99999=-nosongbg-=1.000=0=0=0 // don't automatically add -songbackground-
;
#KEYSOUNDS:;
#ATTACKS:;

//---------------dance-single - ----------------
#NOTES:
     dance-single:
     :
     Hard:
     13:
     0.548260,0.801617,0.448510,0.020387,0.305803,753.000000,665.000000,88.000000,4.000000,0.000000,0.000000,0.548260,0.801617,0.448510,0.020387,0.305803,753.000000,665.000000,88.000000,4.000000,0.000000,0.000000:
// measure 0
0000
0000
0000
0000
,  // measure 1
0000
0000
0000
0000
,  // measure 2
0010
0001
0100
0001
0100
0010
0001
0100
,  // measure 3
0001
0100
0010
0001
1000
0001
0100
0010
,  // measure 4
0001
0100
0001
0100
0010
0001
1000
0001
,  // measure 5
0100
0010
0101
0010
0001
0100
0001
0100
,  // measure 6
1000
0001
0100
0010
0100
0001
0001
0100
,  // measure 7
0010
0001
1000
0001
0100
0000
0010
0100
,  // measure 8
0001
0100
0001
1000
0100
0001
0010
0001
,  // measure 9
1000
0001
0100
0010
0001
0000
0001
0100
,  // measure 10
1000
0010
0100
0010
0001
0100
0001
0100
,  // measure 11
0010
0001
1000
0001
0100
0000
0010
0001
,  // measure 12
0100
0010
0001
1000
0001
0100
0010
0001
,  // measure 13
0100
1000
0010
0000
0001
1000
0001
0100
,  // measure 14
0001
0010
0100
0001
0010
0001
1000
0001
,  // measure 15
0100
0000
0010
0000
0001
0100
0001
1000
,  // measure 16
0100
0001
0100
0010
0001
0100
0001
1000
,  // measure 17
0100
0000
0010
0100
0001
1000
0001
0010
,  // measure 18
0001
0100
1000
0001
1000
0010
0001
0100
,  // measure 19
0010
0000
1001
0000
0001
0100
0010
0001
,  // measure 20
0100
0010
0001
0100
0001
0100
0010
0001
,  // measure 21
1000
0001
0100
0010
0001
0100
0001
0100
,  // measure 22
1000
0000
0100
0001
1000
0001
0010
0100
0001
0000
0010
0100
0000
0000
0000
0000
,  // measure 23
0010
0000
0001
0000
0110
0000
0001
0000
0100
0000
0010
0100
0000
0000
0000
0000
,  // measure 24
0000
0000
0000
0000
0100
0001
0100
0001
0010
0000
0001
0100
0000
0010
0001
0100
,  // measure 25
1000
0001
0100
2000
0000
0000
3100
0000
,  // measure 26
0000
0000
0010
0100
0001
0100
0001
1000
0100
0000
0010
0100
0000
0000
0010
0000
,  // measure 27
0001
0000
0100
0000
0001
0000
0100
0000
1000
0000
0100
0001
0000
0000
0000
0000
,  // measure 28
0000
0000
0100
0010
0001
0100
0001
1000
0100
0000
0010
0100
0000
0000
0010
0000
,  // measure 29
0100
0001
0010
0000
0100
0001
1000
0000
0010
0100
0001
0000
0001
0000
0100
0000
,  // measure 30
1010
0000
0101
0000
0011
0000
0001
0101
,  // measure 31
0000
0101
0000
0101
0000
0001
0100
0010
,  // measure 32
0101
0110
1001
0000
,  // measure 33
1100
1100
0000
0101
0101
0000
0010
0100
,  // measure 34
0101
0000
0101
0000
0101
0101
0101
0000
,  // measure 35
0100
0010
0001
0100
0001
0100
1000
0000
,  // measure 36
0100
0000
0010
0000
0001
1000
0100
0000
,  // measure 37
0011
0000
0001
0100
0011
0000
0101
0000
,  // measure 38
0101
0000
0101
0000
0010
0100
0001
0100
,  // measure 39
1000
0010
0100
0010
0001
0100
0001
0100
,  // measure 40
1000
0010
0001
0100
0001
0100
2000
0000
,  // measure 41
0000
0100
3000
0000
0100
0001
0010
0010
,  // measure 42
0001
0100
0010
0001
1000
0001
0100
0010
,  // measure 43
0101
0000
0101
0000
0001
0100
0001
1000
,  // measure 44
0010
0001
0100
0010
0001
0100
0001
0100
,  // measure 45
1000
0000
0010
0001
0100
0010
0001
0100
,  // measure 46
0001
1000
0010
0100
0100
0010
0001
0100
,  // measure 47
0010
0000
1001
0000
0001
0100
0010
0001
,  // measure 48
1000
0001
0100
0010
0100
0010
0001
1000
,  // measure 49
0001
0100
0010
0001
0100
0001
1000
0100
,  // measure 50
0010
0000
0100
0001
1000
0001
0010
0100
0001
0000
0010
0100
0000
0000
0001
0000
,  // measure 51
0010
0000
0100
0000
0110
0000
0100
0000
0010
0000
0100
0001
0000
0000
0000
0000
,  // measure 52
0000
0000
0100
0010
0001
1000
0001
0100
1000
0000
0001
0010
0000
0100
0001
1000
,  // measure 53
0001
0010
0100
1000
0000
0000
0110
0000
,  // measure 54
0000
0000
0100
0010
0001
1000
0001
0100
1000
0000
0100
0010
0000
0000
0100
0000
,  // measure 55
0001
0000
1000
0000
0001
0000
0100
0000
0010
0000
0001
0100
0000
0000
0000
0000
,  // measure 56
0000
0000
0100
0010
0001
1000
0001
0100
1000
0000
0100
0001
0000
0000
0000
0000
,  // measure 57
0010
0100
0001
0000
0001
0100
0010
0000
0001
0100
0010
0000
0001
0000
1000
0000
,  // measure 58
0110
0000
0110
0000
0110
0000
0001
1001
,  // measure 59
0000
1001
0000
1001
0000
0001
0100
0010
,  // measure 60
1001
0000
1001
0000
1001
0000
0100
0101
,  // measure 61
0000
0110
0000
0110
0000
0001
1000
0100
,  // measure 62
1100
0000
1100
0000
0110
0000
0100
0110
,  // measure 63
0000
1001
0000
1001
0000
0010
0001
0100
,  // measure 64
1010
0000
0000
0000
0110
0000
0000
0000
0110
0000
0000
0000
1000
0100
0001
0100
,  // measure 65
0001
0011
0000
0101
0101
0000
0010
0100
,  // measure 66
1000
0000
0000
0000
0000
0000
0000
0000
0100
0000
0000
0000
0010
0100
0001
1000
0001
0000
0011
0000
0000
0000
0110
0000
0110
0000
0000
0000
1000
0000
0001
0000
,  // measure 67
1001
0000
0000
0000
0000
0000
0000
0000
0100
0000
0000
0000
0010
0100
0001
1000
0001
0000
1001
0000
0000
0000
0110
0000
0110
0000
0000
0000
1000
0000
0100
0000
,  // measure 68
0001
0000
0010
0001
1000
0001
0100
1000
0200
0000
0000
0000
0300
0000
0100
0002
,  // measure 69
0000
0000
0000
0000
0000
0000
0003
0000
1000
0010
0100
0001
0000
0010
0000
0100
,  // measure 70
0010
0001
0100
1000
0000
0000
0000
0001
0100
0001
0100
1000
0000
0100
0000
0010
,  // measure 71
0001
0100
1000
0000
0010
0000
0000
1000
0001
0100
0010
1000
0000
0001
0000
0100
,  // measure 72
0010
0001
0100
1000
0000
0010
0000
0010
0001
0100
0001
0100
0000
1000
0000
0010
,  // measure 73
0001
0100
1000
0000
0010
0001
0100
1000
0010
0100
0001
0100
0001
0100
0001
0100
,  // measure 74
1000
0000
0100
0010
0001
0100
0001
1000
0100
0000
0010
0100
0000
0000
0010
0000
,  // measure 75
0100
0000
0001
0000
1001
0000
0100
0000
0001
0000
1000
0100
0000
0000
0000
0000
,  // measure 76
0000
0000
0100
0001
1000
0001
0010
0100
0001
0000
1000
0100
0000
0010
0100
0001
,  // measure 77
1000
0010
0100
1000
0000
0000
1001
0000
,  // measure 78
0000
0000
0001
0100
0001
0100
1000
0010
0100
0000
0010
0100
0000
0000
0001
0000
,  // measure 79
0100
0000
0010
0000
0001
0000
0100
0000
0001
0000
1000
0100
0000
0000
0000
0000
,  // measure 80
0000
0000
0100
0010
0001
1000
0001
0100
1000
0000
0001
0010
0000
0000
0000
0000
,  // measure 81
1000
0100
0001
0000
0010
0100
0001
0000
0010
0100
0001
0000
1000
0000
0100
0000
,  // measure 82
0110
0000
0110
0000
0110
0000
0001
0101
,  // measure 83
0000
0101
0000
0101
0000
0010
0001
0100
,  // measure 84
1100
0000
0101
0000
0101
0000
0001
1001
,  // measure 85
0000
1001
0000
1001
0000
0010
0001
0100
,  // measure 86
1001
0000
1001
0000
1001
0000
0001
1001
,  // measure 87
0000
1001
0000
1001
0000
0000
0001
1000
,  // measure 88
1001
0000
0000
0000
1001
0000
0000
0000
1001
0000
0000
0000
0100
0001
1000
0001
,  // measure 89
0010
0110
0000
0101
0101
0000
0100
1000
;
