#TITLE:my unnies;
#SUBTITLE:;
#ARTIST:Kimj, SEBII, The Deep, & Effie;
#TITLETRANSLIT:;
#SUBTITLETRANSLIT:;
#ARTISTTRANSLIT:;
#GENRE:;
#CREDIT:;
#BANNER:;
#BACKGROUND:;
#LYRICSPATH:;
#CDTITLE:;
#MUSIC:my unnies.ogg;
#OFFSET:0.000000;
#SAMPLESTART:100.059883;
#SAMPLELENGTH:12.000000;
#SELECTABLE:YES;
#BPMS:0.000000=137.000000
;
#STOPS:0.000000=0.100000,
190.000000=0.450000
;
#BGCHANGES:;
#KEYSOUNDS:;
#ATTACKS:;

//---------------dance-single - ----------------
#NOTES:
     dance-single:
     :
     Hard:
     13:
     0.615247,0.689416,0.427821,0.068451,0.342257,755.000000,680.000000,75.000000,12.000000,0.000000,0.000000,0.615247,0.689416,0.427821,0.068451,0.342257,755.000000,680.000000,75.000000,12.000000,0.000000,0.000000:
// measure 0
0000
0000
0000
0000
,  // measure 1
0000
0000
0000
0000
,  // measure 2
0000
0000
0000
0000
,  // measure 3
0000
0000
0000
0000
,  // measure 4
0010
0000
0000
0001
0000
0000
0010
0000
0000
0100
0000
0000
0001
0000
1000
0000
,  // measure 5
0100
0010
0001
0100
0000
0000
0000
0001
,  // measure 6
0100
0001
0100
1000
0000
0000
0001
0100
,  // measure 7
0000
0001
0000
0100
0000
0001
0000
0100
,  // measure 8
1001
1001
1001
0000
0000
0000
0010
0001
,  // measure 9
0100
0001
0100
1000
0000
0000
0000
0001
,  // measure 10
0100
0001
0100
1000
0000
0000
0001
0100
,  // measure 11
0000
0000
0010
0000
0000
0000
0100
0001
0010
0000
0100
0000
0001
0000
1001
0000
,  // measure 12
1001
0000
1001
0000
1001
0000
0010
0100
0001
0000
0000
1000
0000
0000
0000
0000
,  // measure 13
0010
0001
1000
0001
0100
0000
0010
0000
0100
0000
0001
1000
0001
0000
0101
0000
,  // measure 14
0101
0000
0000
0000
0000
0000
1000
0100
0001
0000
0010
0100
0000
0000
0010
0000
,  // measure 15
0101
0000
0001
0000
0100
0001
1000
0100
0001
0000
0100
0010
0100
0000
0001
0000
,  // measure 16
1001
0000
1001
0000
1001
0000
0100
0001
0010
0000
0100
0001
0000
0000
0000
0000
,  // measure 17
1000
0000
0100
0001
0010
0000
0100
0001
0010
0000
0100
0001
0000
0000
0100
0000
,  // measure 18
0001
0000
0000
0000
0000
0000
1000
0000
0100
0000
0010
0100
0000
0000
2002
0000
,  // measure 19
0000
0000
0000
0000
0000
0000
0000
0000
0000
0000
3003
0000
0001
0000
0000
0010
,  // measure 20
0100
0010
0001
0100
0001
0100
1000
0100
,  // measure 21
2000
0000
0000
0200
0000
0000
3300
0000
,  // measure 22
0001
0100
0010
0001
1000
0001
0100
0001
,  // measure 23
0020
0000
0000
0000
0000
0000
0031
0000
0110
0000
0000
0110
0000
0000
0000
0000
,  // measure 24
0110
0010
0001
0100
0001
0100
0001
1000
,  // measure 25
0200
0000
0000
0000
0300
0100
0001
0100
,  // measure 26
0010
0000
0100
0001
0000
1000
0100
0000
0001
0000
0000
0010
0000
0000
0100
0000
,  // measure 27
0000
0000
0010
0100
0001
1000
0001
0010
0100
0000
0010
0100
0000
0001
1000
0000
,  // measure 28
0110
0110
0110
0000
1001
0000
1001
0000
,  // measure 29
1000
0001
0100
0001
0010
0100
0001
0100
,  // measure 30
2002
0000
0000
3003
,  // measure 31
0101
0101
0101
0101
0101
0000
0101
0000
,  // measure 32
1010
0000
0000
1010
0000
0000
1010
0000
0100
0000
0000
0001
0010
0000
0100
0000
,  // measure 33
0000
0000
0000
0010
0000
0000
0100
0001
0010
0000
0000
0000
0001
0000
0000
0000
,  // measure 34
0000
0101
0000
1001
0000
0011
0000
0101
,  // measure 35
0000
0000
0101
0000
0000
0000
1000
0100
0001
0000
0100
0010
0100
0000
0010
0000
,  // measure 36
1001
0000
0000
0100
0001
0000
0010
0000
0100
0000
0000
0010
0100
0000
0001
0000
,  // measure 37
0000
0000
0100
0001
0010
0000
0001
0100
,  // measure 38
1000
0001
1000
0001
0000
0100
0000
0000
,  // measure 39
0010
0000
0100
0000
0001
0000
1000
0000
0001
0010
0100
0001
0100
0000
0010
0100
,  // measure 40
0001
0010
0100
0010
0001
1000
0001
0100
,  // measure 41
1000
0000
0010
0000
0001
0000
1000
0000
0001
0000
0100
0000
0010
0000
0001
0100
,  // measure 42
1000
0010
0100
0010
0001
0100
0001
0100
,  // measure 43
1000
0000
0010
0000
0001
0000
0100
0000
0001
0000
0100
0000
0010
0000
0001
0100
,  // measure 44
1000
0010
0001
0100
0001
0100
0010
0001
,  // measure 45
1000
0000
0001
0000
0100
0000
0010
0001
0100
0000
0010
0000
0001
0000
0100
0000
,  // measure 46
0001
0100
0010
0001
1000
0001
0100
0010
,  // measure 47
0001
0100
0001
0100
1000
0000
1001
0001
,  // measure 48
0010
0000
0001
0000
1000
0000
0000
0000
0100
0000
0000
0000
0000
0000
0000
0010
,  // measure 49
0000
0200
0000
0000
0300
0010
0100
0001
,  // measure 50
1000
0010
0001
0100
0001
0010
1000
0100
,  // measure 51
0001
0010
0001
0000
1000
0010
0100
0001
,  // measure 52
0100
0010
0001
0100
1000
0100
0001
0010
,  // measure 53
0001
0000
0100
0000
1000
0000
0000
0000
0100
0000
0001
1000
0100
0000
0001
0000
,  // measure 54
0100
0010
0001
0100
0001
0100
1000
0000
,  // measure 55
0000
0010
0110
0000
0001
0010
0110
0001
,  // measure 56
0101
0010
0001
1000
0101
0010
0100
0001
,  // measure 57
0110
0001
0100
0010
1001
0100
0010
0001
,  // measure 58
0100
0010
1000
0010
0110
0001
0001
0100
,  // measure 59
0010
0001
0100
0001
0100
0010
0001
1000
,  // measure 60
0001
0100
0010
0100
0001
0100
0010
0100
,  // measure 61
0010
0001
0100
0001
0100
0010
1001
1001
,  // measure 62
1001
1001
0010
0001
1000
0001
0100
0010
,  // measure 63
0010
0001
0100
0001
0100
0010
1100
0000
,  // measure 64
0101
0000
0010
0100
0001
0000
0010
0100
0000
0000
0000
0000
1000
0100
0001
0010
,  // measure 65
0100
0000
0010
0000
0100
0000
0001
1000
0010
0000
0100
0000
0010
0000
0000
0000
,  // measure 66
0000
0000
1000
0100
0001
0000
0010
0100
0000
0000
0001
0000
0100
0000
0010
0000
,  // measure 67
1000
0100
0001
0100
0010
0000
0100
0001
0000
0010
0000
0000
1001
0000
0000
0000
,  // measure 68
0101
0000
0010
0100
0001
0000
0100
0010
0000
0000
0000
0000
1000
0100
0001
0000
,  // measure 69
0100
0000
0000
0000
0010
0000
0001
1000
0000
0000
0010
0000
0100
0000
0000
0000
,  // measure 70
0000
0000
0010
0000
0100
0000
0001
1000
0000
0000
0110
0000
0000
0100
0001
1000
,  // measure 71
0001
0010
0100
0000
0010
0000
0100
0001
0000
1000
0100
0000
0000
0010
0000
0100
,  // measure 72
0001
0000
1000
0100
0000
0010
0100
0000
0001
1000
0000
0100
0001
0000
0010
0100
,  // measure 73
0000
0010
0100
0000
0001
1000
0000
0100
0001
0000
0010
0100
0020
0000
0000
0000
,  // measure 74
0000
0000
0000
0000
0030
0100
1000
0000
,  // measure 75
0001
0000
0000
0000
0010
0000
0000
0000
0100
0001
1000
0100
0001
0010
0100
0001
,  // measure 76
1000
0001
0010
0100
0001
0000
0000
0000
0010
0000
0000
0000
0001
0000
0000
0010
,  // measure 77
0000
0100
0000
0010
0100
0001
0010
0001
,  // measure 78
0100
0001
0100
0010
0001
1000
0001
0100
,  // measure 79
0010
0000
0001
0100
1000
0100
0001
0100
0001
0000
0010
0000
0110
0000
0000
0000
,  // measure 80
0001
0000
1000
0000
1001
0000
0000
0000
0100
0000
0001
0000
0101
0000
0000
0101
,  // measure 81
0000
0101
0001
0000
0100
0000
0011
0100
,  // measure 82
0010
0001
0100
0001
0100
0010
0001
0100
,  // measure 83
0001
0000
0100
0000
0010
0000
1000
0000
0100
0000
0001
0010
0100
0000
0000
0000
,  // measure 84
0101
0000
0000
0000
0101
0000
0000
0000
1001
0000
0000
0000
1001
0000
0000
1001
,  // measure 85
0000
1001
0001
0000
0010
0100
0010
0001
,  // measure 86
0101
0000
0010
0000
1000
0000
0001
0000
0110
0000
0001
0000
1000
0100
0001
0000
,  // measure 87
0010
0000
0001
0000
0100
0000
0010
0000
0101
0000
0000
0010
0100
0000
0000
0000
,  // measure 88
0100
0001
0010
0000
0110
0000
0000
0000
0100
0000
0001
0100
0001
0000
0000
1001
,  // measure 89
0000
1001
0010
0000
0100
0001
0010
0100
,  // measure 90
0001
0100
0010
0001
1000
0001
0100
0001
,  // measure 91
0010
0000
0100
0000
2002
0000
0000
0000
3003
0000
0000
0000
1001
0000
0010
0100
,  // measure 92
0000
0001
1000
0000
0100
0001
0000
0010
0100
0000
0001
1000
0000
0100
0001
0000
,  // measure 93
1000
0100
0000
0001
0100
0000
0010
0100
0000
0001
0100
0000
0010
0000
0100
0001
,  // measure 94
0000
1000
0100
0001
0010
0000
0100
0001
0000
1000
0100
0000
0001
0100
0000
0001
,  // measure 95
0010
0000
0100
0001
0000
0010
0100
0000
0001
0000
0000
0010
0100
0000
0010
0100
,  // measure 96
0000
0001
0010
0000
1000
0100
0000
0001
0010
0000
0100
0001
0000
0000
0000
0000
;
