#VERSION:0.83;
#TITLE:my life is a party;
#SUBTITLE:(R.I.O. Audio Edit);
#ARTIST:ItaloBrothers;
#TITLETRANSLIT:;
#SUBTITLETRANSLIT:;
#ARTISTTRANSLIT:;
#GENRE:;
#ORIGIN:;
#CREDIT:;
#BANNER:;
#BACKGROUND:;
#PREVIEWVID:;
#JACKET:;
#CDIMAGE:;
#DISCIMAGE:;
#LYRICSPATH:;
#CDTITLE:;
#MUSIC:Italio Brothers - My life is a Party (R.I.O. Edit) (Original).ogg;
#OFFSET:0.000000;
#SAMPLESTART:100.059883;
#SAMPLELENGTH:12.000000;
#SELECTABLE:YES;
#BPMS:0.000=128.000;
#STOPS:0.000=1.100;
#DELAYS:;
#WARPS:;
#TIMESIGNATURES:0.000=4=4;
#TICKCOUNTS:0.000=4;
#COMBOS:0.000=1;
#SPEEDS:0.000=1.000=0.000=0;
#SCROLLS:0.000=1.000;
#FAKES:;
#LABELS:0.000=Song Start;
#BGCHANGES:;
#KEYSOUNDS:;
#ATTACKS:
;

//---------------dance-single - ----------------
#NOTEDATA:;
#CHARTNAME:;
#STEPSTYPE:dance-single;
#DESCRIPTION:;
#CHARTSTYLE:;
#DIFFICULTY:Hard;
#METER:12;
#RADARVALUES:0.426540,0.474912,0.028848,0.129816,0.173089,621.000000,615.000000,6.000000,27.000000,0.000000,0.000000,0.000000,0.000000,0.000000,0.426540,0.474912,0.028848,0.129816,0.173089,621.000000,615.000000,6.000000,27.000000,0.000000,0.000000,0.000000,0.000000,0.000000;
#CREDIT:;
#NOTES:
// measure 0
0000
0000
0000
0000
,  // measure 1
0000
0000
0000
0000
,  // measure 2
1000
0000
0000
0001
0000
0000
0010
0000
0100
0000
0000
0000
0010
0000
0001
0000
,  // measure 3
1000
0000
0000
0010
0000
0000
0100
0000
0010
0000
0000
0000
0001
0000
0010
0000
,  // measure 4
0010
0000
0100
0001
0000
0000
1000
0000
0000
0000
0000
0000
0100
0000
0001
0000
,  // measure 5
0020
0000
0000
0000
0030
0000
1000
0200
,  // measure 6
0000
0000
0000
0000
0300
0000
0100
2000
,  // measure 7
0000
0000
0000
0000
3000
0000
0010
0220
,  // measure 8
0000
0000
0330
0000
0100
0001
1000
0200
,  // measure 9
0000
0000
0010
0000
0300
0000
0010
0002
,  // measure 10
0000
0000
1003
0000
0001
0100
1000
0000
,  // measure 11
0100
0000
0010
0000
0001
0000
0100
0011
,  // measure 12
0000
0101
0001
0000
0001
0000
0100
1000
,  // measure 13
0001
0000
0100
0000
0010
0000
0001
1000
,  // measure 14
0100
0000
0010
0000
0001
1000
0001
0100
,  // measure 15
1000
0100
0010
0010
0001
1000
0001
0100
,  // measure 16
1000
0000
0100
0000
0020
0000
0000
0200
,  // measure 17
0000
0000
0000
0000
0330
2000
0000
0200
,  // measure 18
0000
0000
0000
3300
0100
0001
1000
0100
,  // measure 19
0000
0000
0000
0000
0010
0000
0000
0100
,  // measure 20
0001
0000
0010
0000
0100
0001
0000
0100
,  // measure 21
0000
0000
0010
0000
0001
1000
0001
0100
,  // measure 22
1000
0000
0000
0100
0010
0001
0100
0001
,  // measure 23
1000
0000
0100
0000
0100
0010
0001
1000
,  // measure 24
0001
0100
1000
0000
0001
0100
0010
0001
,  // measure 25
0100
0000
0010
0000
0001
1000
0001
0100
,  // measure 26
1000
0000
0010
0000
0001
1000
0001
0100
,  // measure 27
1000
0000
0010
0000
0001
1000
0001
0100
,  // measure 28
1000
0000
0100
0000
0010
0100
0001
0100
,  // measure 29
1000
0000
0000
0010
0001
0000
0100
0000
0001
0000
1000
0000
0100
0000
0100
0000
,  // measure 30
0010
0000
0000
0010
0000
0000
0010
0000
0001
0000
1000
0000
0001
0000
0100
0000
,  // measure 31
1000
0000
0000
0010
0100
0000
1000
0000
0001
0000
0100
0000
0010
0000
0001
0000
,  // measure 32
0010
0000
0001
0100
1000
0000
0010
0000
0100
0000
0001
0000
1000
0000
0100
0000
,  // measure 33
0001
0000
0000
0010
0100
0000
0010
0000
0001
0000
1000
0000
0001
0000
0100
0000
,  // measure 34
1000
0000
0000
0001
0000
0000
0010
0000
0001
0000
1000
0000
0001
0000
0100
0000
,  // measure 35
1000
0000
0000
0100
0010
0000
0001
0000
0100
0000
0001
0000
0100
0000
1000
0000
,  // measure 36
0001
0000
0000
0010
0000
0000
1000
0000
0001
0000
0100
0000
0010
0001
0100
1000
,  // measure 37
0001
0000
0000
0100
0000
0000
0100
0000
0010
0000
0000
0000
1000
0000
0100
0000
,  // measure 38
0001
0000
0000
0100
0000
0000
0010
0000
1000
0000
0000
0000
0001
0000
0100
0000
,  // measure 39
1000
0000
0000
0001
0000
0000
0100
0000
1000
0000
0000
0000
0001
0000
0100
0000
,  // measure 40
0010
0000
0001
0100
0000
0000
0001
0000
0010
0000
0000
0000
0100
0000
0001
0000
,  // measure 41
1000
0000
0000
0100
0000
0000
0010
0000
0001
0000
0000
0000
1000
0000
0100
0000
,  // measure 42
0010
0000
0000
0001
0000
0000
0100
0000
1000
0000
0000
0000
0001
0000
0100
0000
,  // measure 43
1000
0000
0000
0100
0000
0000
0010
0000
0001
0000
0000
0000
0100
0000
0010
0000
,  // measure 44
0100
0000
0001
0010
0000
0000
1000
0000
0100
0000
0001
0000
0010
0000
0100
0000
,  // measure 45
0002
0000
0000
0000
0003
0000
1000
0200
,  // measure 46
0000
0000
0000
0000
0000
0300
0010
0002
,  // measure 47
0000
0000
0000
0000
0000
0003
0100
0020
,  // measure 48
0000
0000
0000
0030
0100
1000
0001
0020
,  // measure 49
0000
0000
0100
0000
0030
0000
0001
0002
,  // measure 50
0000
0000
0010
0000
0003
0000
0001
0010
,  // measure 51
0000
0100
0010
0000
0010
0000
0100
0001
,  // measure 52
0000
0100
1000
0000
0000
0000
0100
0001
,  // measure 53
1001
0000
0100
0000
0010
0000
0001
0100
,  // measure 54
1000
0000
0010
0000
1000
0001
0100
0010
,  // measure 55
1000
0100
0001
0010
0001
0100
0001
1000
,  // measure 56
0100
0000
0010
0000
0002
0000
0000
2000
,  // measure 57
0000
0000
0000
3003
0000
0200
0000
0002
,  // measure 58
0000
0000
0000
0303
0001
1000
0001
0100
,  // measure 59
1000
0000
0000
0000
0010
0000
0000
0001
,  // measure 60
0100
0000
0010
0000
0001
1000
0001
0100
,  // measure 61
1000
0000
0000
0010
0100
0000
0010
0000
0001
0000
1000
0000
0001
0000
0100
0000
,  // measure 62
1000
0000
0000
0100
0000
0000
0001
0000
0010
0000
0100
0000
0001
0000
1000
0000
,  // measure 63
0100
0000
0000
0010
0100
0000
0001
0000
1000
0000
0010
0000
0001
0000
0100
0000
,  // measure 64
0010
0000
0100
0001
0010
0000
0010
0000
0100
0000
0001
0000
1000
0000
0010
0000
,  // measure 65
0001
0000
0000
0100
1000
0000
0001
0000
0100
0000
0010
0000
0001
0000
0100
0000
,  // measure 66
1000
0000
0000
0100
0000
0000
0001
0000
0100
0000
0001
0000
0001
0000
0100
0000
,  // measure 67
1000
0000
0000
0001
0100
0000
0010
0000
0001
0000
0100
0000
0001
0000
1000
0000
,  // measure 68
0100
0000
0000
0100
0000
0000
0001
0000
0010
0000
0100
0000
0001
0000
0100
0000
,  // measure 69
1000
0000
0000
0100
0000
0000
0010
0000
0001
0000
0000
0000
0001
0000
0100
0000
,  // measure 70
1000
0000
0000
0001
0000
0000
0100
0000
0010
0000
0000
0000
0001
0000
0100
0000
,  // measure 71
1000
0000
0000
0001
0000
0000
0010
0000
0100
0000
0000
0000
0100
0000
0001
0000
,  // measure 72
0010
0000
0001
0100
0000
0000
0010
0000
0100
0000
0000
0000
0001
0000
0010
0000
,  // measure 73
0010
0000
0000
0001
0000
0000
0100
0000
0001
0000
0000
0000
0100
0000
1000
0000
,  // measure 74
0010
0000
0000
0100
0000
0000
0001
0000
1000
0000
0000
0000
0100
0000
0001
0000
,  // measure 75
0010
0000
0000
0100
0000
0000
0001
0000
0010
0000
0000
0000
0100
0000
0001
0000
,  // measure 76
1000
0000
0100
0001
0000
0000
0010
0000
0100
0000
0001
0000
1000
0000
0001
0000
,  // measure 77
0010
0000
0000
0100
0000
0000
0001
0000
0000
1000
0000
0000
0100
0000
0001
0000
,  // measure 78
0010
0000
0000
0100
0000
0000
0001
0000
0000
0010
0000
0000
0100
0000
0001
0000
,  // measure 79
0010
0000
0000
0100
0000
0000
0010
0000
0000
0001
0000
0000
0010
0000
0100
0000
,  // measure 80
1000
0000
0000
0010
0000
0000
0001
0000
0000
0100
0000
0000
1000
0000
0100
0000
,  // measure 81
0010
0000
0000
0001
0000
0000
0100
0000
0000
0010
0000
0000
0001
0000
0100
0000
,  // measure 82
1000
0000
0000
0001
0000
0000
0100
0000
0000
0010
0000
0000
0001
0000
0100
0000
,  // measure 83
1000
0000
0000
0001
0000
0000
0100
0000
0000
0010
0000
0000
0001
0000
0100
0000
,  // measure 84
1000
0000
0000
0100
0000
0000
0010
0000
0000
0001
0000
0000
0100
0000
0010
0000
,  // measure 85
1001
0000
0000
0000
0000
0000
0010
0100
,  // measure 86
0000
0000
0000
0100
0001
1000
0001
0010
,  // measure 87
0000
0100
0100
0001
1000
0100
0010
0001
,  // measure 88
0000
0000
0000
0000
0200
0000
0000
0020
,  // measure 89
0000
0000
0000
0330
0000
2000
0000
0200
,  // measure 90
0000
0000
0000
3300
0001
0100
0001
0010
,  // measure 91
0000
0000
0000
0000
0100
0000
0000
0001
,  // measure 92
0010
0000
0100
0000
0001
1000
0001
0010
,  // measure 93
0100
0000
0000
0001
0010
0000
0100
0000
0001
0000
1000
0000
0100
0000
0001
0000
,  // measure 94
0010
0000
0000
0100
0000
0000
1000
0000
0100
0000
0010
0000
0001
0000
0100
0000
,  // measure 95
1000
0000
0000
0010
0100
0000
0001
0000
1000
0000
0100
0000
0001
0000
0010
0000
,  // measure 96
0100
0000
0001
0010
0100
0000
0001
0000
0010
0000
0100
0000
0001
0000
1000
0000
,  // measure 97
0001
0000
0000
1000
0010
0000
0100
0000
0100
0000
0010
0000
0001
0000
0100
0000
,  // measure 98
1000
0000
0000
0010
0000
0000
0001
0000
0100
0000
0010
0000
0001
0000
0100
0000
,  // measure 99
1000
0000
0000
0001
0010
0000
0001
0000
0100
0000
0001
0000
0010
0000
0001
0000
,  // measure 100
0100
0000
0000
0001
0000
0000
0001
0000
0010
0000
0000
0000
0001
1000
0001
0100
,  // measure 101
1000
0000
0000
0100
0000
0000
0001
0000
0010
0000
0000
0000
0100
0000
0001
0000
,  // measure 102
0010
0000
0000
0100
0000
0000
0001
0000
0010
0000
0000
0000
0100
0000
1000
0000
,  // measure 103
0100
0000
0000
0010
0000
0000
0001
0000
0100
0000
0000
0000
0001
0000
0100
0000
,  // measure 104
1000
0000
0100
0010
0000
0000
0001
0000
0100
0000
0000
0000
1000
0000
0010
0000
,  // measure 105
0100
0000
0000
0001
0000
0000
1000
0000
0100
0000
0000
0000
0001
0000
0010
0000
,  // measure 106
0100
0000
0000
0001
0000
0000
1000
0000
0100
0000
0000
0000
0001
0000
0010
0000
,  // measure 107
0100
0000
0000
0001
0000
0000
1000
0000
0100
0000
0000
0000
0001
0000
0010
0000
,  // measure 108
0100
0000
0001
1000
0000
0000
0100
0001
0010
0000
0100
0000
2002
0000
0000
0000
,  // measure 109
0000
0000
0000
3003
;
