#TITLE:my diorama;
#SUBTITLE:;
#ARTIST:Stomach Book;
#TITLETRANSLIT:;
#SUBTITLETRANSLIT:;
#ARTISTTRANSLIT:;
#GENRE:;
#CREDIT:;
#BANNER:;
#BACKGROUND:;
#LYRICSPATH:;
#CDTITLE:;
#MUSIC:My Diorama.ogg;
#OFFSET:0.000000;
#SAMPLESTART:100.059883;
#SAMPLELENGTH:12.000000;
#SELECTABLE:YES;
#BPMS:0.000000=110.000000
;
#STOPS:
;
#BGCHANGES:;
#KEYSOUNDS:;
#ATTACKS:;

//---------------dance-single - ----------------
#NOTES:
     dance-single:
     :
     Hard:
     12:
     0.420105,0.546728,0.051773,0.015532,0.352060,568.000000,558.000000,10.000000,3.000000,0.000000,0.000000,0.420105,0.546728,0.051773,0.015532,0.352060,568.000000,558.000000,10.000000,3.000000,0.000000,0.000000:
// measure 0
0000
0000
0000
0000
,  // measure 1
0000
0000
0000
0000
,  // measure 2
0000
0000
0000
0000
,  // measure 3
0000
0000
0000
0000
,  // measure 4
1001
0000
0000
0010
0001
0100
0001
0100
,  // measure 5
1000
0000
0000
0100
0010
0001
0100
0001
,  // measure 6
1100
0010
0001
0200
,  // measure 7
0000
0000
0000
0300
,  // measure 8
0110
0000
0000
0010
0001
0100
0001
0100
,  // measure 9
1000
0000
0000
0010
0001
0100
0001
0100
,  // measure 10
1001
0100
0010
0200
,  // measure 11
0000
0000
0000
0000
0000
0000
0300
0100
,  // measure 12
0101
0000
0000
0000
0100
0000
0000
0010
0100
0000
0000
0000
0001
0000
0000
0010
,  // measure 13
0100
0000
0000
0000
0010
0000
0000
0001
0100
0000
0000
0000
0100
0000
0000
0010
,  // measure 14
0001
0000
0000
0000
0001
0000
0000
1000
0100
0000
0000
0000
0001
0000
0000
0100
,  // measure 15
1000
0000
0000
0000
0010
0000
0000
0001
0100
0010
0100
0001
1000
0000
0100
0000
,  // measure 16
0101
0000
0000
0000
0010
0000
0000
0001
0100
0000
0000
0000
0001
0000
0000
0100
,  // measure 17
1000
0000
0000
0000
0010
0000
0000
0001
0100
0000
0001
0000
0100
0000
0010
0000
,  // measure 18
1000
0001
0010
0000
0100
0000
0010
0100
0000
0000
0100
0000
0010
0000
0100
0001
,  // measure 19
0000
0000
0000
0000
0000
0000
0000
0000
0000
0010
0100
0001
0000
0010
0100
0001
,  // measure 20
0010
0000
0000
0000
0100
0000
0000
0010
0100
0000
0001
0000
0010
0000
0000
0100
,  // measure 21
0001
0000
0010
0000
0001
0100
0001
0100
,  // measure 22
0010
0100
0001
0000
1000
0100
0001
0010
0000
0000
0100
0000
0001
0000
0100
0001
,  // measure 23
0010
0000
0100
0000
0010
0100
0000
0001
0010
0100
0001
1000
0000
0100
0001
0010
,  // measure 24
0100
0000
0000
0000
0010
0000
0000
0100
0001
0000
0000
0000
1000
0000
0000
0100
,  // measure 25
0001
0000
0000
0000
0010
0000
0000
0100
1000
0000
0000
0000
1000
0000
0000
0001
,  // measure 26
0100
0000
0000
0000
0010
0000
0000
0100
0001
0000
0000
0000
0010
0000
0000
1000
,  // measure 27
0100
0000
0000
0000
0001
0000
0000
0010
0100
0000
0000
0000
0001
0000
0000
1000
,  // measure 28
0100
0000
0000
0000
0010
0000
0000
0100
0001
0000
0000
0000
0010
0000
0000
1000
,  // measure 29
0100
0000
0000
0000
0001
0000
0000
0010
0100
0000
0000
0000
0001
0000
0000
1000
,  // measure 30
0100
0000
0000
0000
0001
0000
0000
0100
1000
0000
0000
0000
0010
0000
0000
0001
,  // measure 31
0100
0000
0000
0000
0001
0000
0000
0100
1000
0000
0000
0000
0001
0000
0000
1000
,  // measure 32
0100
0000
0000
0010
0001
1000
0001
0100
,  // measure 33
1000
0000
0000
0010
0001
0100
0001
0100
,  // measure 34
1001
0000
0000
0200
,  // measure 35
0000
0000
0000
0300
,  // measure 36
1001
0000
0000
0010
0001
1000
0001
0100
,  // measure 37
1000
0000
0000
0001
1000
0001
0100
0010
,  // measure 38
0101
0001
0010
0100
,  // measure 39
0100
0000
0000
0000
0010
0000
0000
0001
0100
0000
0000
0000
0001
0000
0000
0100
,  // measure 40
0010
0000
0000
0000
0001
0000
0000
0100
1000
0000
0000
0000
0010
0000
0000
0001
,  // measure 41
0100
0000
0000
0000
0001
0000
0000
1000
0100
0000
0010
0000
0001
0000
0100
0000
,  // measure 42
1000
0100
0001
1000
0001
0000
0010
0100
0000
0000
0010
0000
1000
0000
0100
0001
,  // measure 43
0000
0000
0000
0000
0000
0000
0000
0000
0000
0000
0100
0001
0010
0000
0100
0001
,  // measure 44
1000
0000
0000
0000
0001
0000
0000
1000
0100
0000
0000
0000
0010
0000
0000
0100
,  // measure 45
0001
0000
0010
0001
0100
0001
0100
1000
,  // measure 46
0100
0001
1000
0100
0000
0001
0010
0100
0000
0000
0100
0000
0010
0000
1000
0100
,  // measure 47
0001
0000
0010
0000
0001
0100
0000
0001
0000
0000
0000
0000
0000
0000
0000
0000
,  // measure 48
1100
0000
0000
0000
0010
0000
0000
0100
0001
0000
0000
0000
0010
0000
0000
0100
,  // measure 49
1000
0000
0000
0000
0100
0000
0000
0001
0010
0000
0100
0000
0001
0000
1000
0100
,  // measure 50
0001
0000
0000
0000
0010
0000
0000
0100
0001
0000
0000
0000
1000
0000
0000
0100
,  // measure 51
0001
0000
0000
0000
0001
0000
0000
0100
0010
0000
0000
0000
0001
0000
0000
1000
,  // measure 52
0100
0000
0000
0000
0001
0000
0000
0100
1000
0000
0000
0000
0010
0000
0000
0001
,  // measure 53
0100
0000
0000
0000
0010
0000
0000
0001
0100
0000
0010
0000
0001
0000
0100
0010
,  // measure 54
1000
0000
0000
0000
0001
0000
0000
1000
0100
0000
0000
0000
0001
0000
0000
0100
,  // measure 55
1000
0000
0000
0000
0010
0000
0000
0001
0100
0000
0010
0001
0010
0000
0001
0010
,  // measure 56
0100
0010
0000
0010
0001
0100
0001
0100
,  // measure 57
1000
0010
0000
0100
0010
0001
0100
0001
,  // measure 58
0100
1000
0000
0100
0010
0001
0100
0001
,  // measure 59
0100
1000
0000
0010
0001
0100
0000
0001
,  // measure 60
0100
0010
0000
0100
0010
0001
0100
0001
,  // measure 61
0100
1000
0000
0100
0010
0001
0100
0001
,  // measure 62
0100
1000
0000
0010
0001
0100
0010
0100
,  // measure 63
0001
0010
0000
0001
0100
0010
0000
0001
,  // measure 64
0100
0000
0010
0000
0000
0000
0100
0001
0010
0000
0100
0000
0010
0000
0001
0100
,  // measure 65
1000
0000
0010
0000
0000
0000
0100
0001
0010
0000
0100
0000
0010
0000
0001
1000
,  // measure 66
0100
0000
0010
0000
0000
0000
0001
0100
1000
0000
0100
0000
0010
0000
0001
0100
,  // measure 67
1000
0000
0100
0000
0000
0000
0001
0010
1000
0000
0100
0000
0000
0000
0001
1000
,  // measure 68
0100
0000
0010
0000
0000
0000
0100
0001
1000
0000
0100
0000
0001
0000
0010
0100
,  // measure 69
0001
0000
1000
0000
0000
0000
0001
0100
1000
0000
0100
0000
0010
0000
0001
0010
,  // measure 70
0100
0000
1000
0000
0000
0000
0010
0001
0100
0000
0001
0000
0010
0000
0001
1000
,  // measure 71
0100
0000
0010
0000
0000
0000
0100
0010
0001
0000
0100
0000
0001
0000
0000
0000
,  // measure 72
1000
0000
0000
0000
0100
0000
0000
0010
0100
0000
0000
0000
0001
0000
0000
0100
,  // measure 73
0010
0000
0000
0000
0001
0000
0000
0100
1000
0000
0100
0000
0010
0000
0001
0000
,  // measure 74
0100
0010
1000
0100
0001
0000
0100
0010
0000
0000
0010
0000
0001
0000
1000
0100
,  // measure 75
0000
0000
0000
0000
0000
0000
0000
0000
0000
0000
0100
0001
0010
0000
0100
0001
,  // measure 76
1000
0000
0000
0000
0001
0000
0000
1000
0100
0000
0000
0000
0010
0000
0000
0100
,  // measure 77
0001
0000
0100
0010
0001
0100
0001
0100
,  // measure 78
1000
0100
0001
0010
0000
0100
0001
0000
0000
0010
0100
0000
0001
0000
1000
0100
,  // measure 79
0000
0000
0010
0000
0100
0001
0000
0010
0000
0000
0000
0000
0000
0000
0000
0000
,  // measure 80
0010
0000
0000
0000
0001
0000
0000
1000
0100
0000
0000
0000
0001
0000
0000
0100
,  // measure 81
1000
0000
0000
0000
0010
0000
0000
0001
0100
0000
0100
0000
0010
0000
0001
0100
,  // measure 82
1000
0000
0000
0000
0001
0000
0000
0100
1000
0000
0000
0000
0010
0000
0000
0001
,  // measure 83
0100
0000
0000
0000
0100
0000
0000
0001
0100
0010
0000
0100
0010
0001
1000
0100
,  // measure 84
0001
0000
0000
0000
0001
0000
0000
1000
0100
0000
0000
0000
0010
0000
0000
0100
,  // measure 85
0001
0000
0000
0000
0000
0000
0000
0010
0001
0000
0100
0000
0010
0000
0001
0100
,  // measure 86
1000
0000
0000
0000
0001
0000
0000
0100
1000
0000
0000
0000
0001
0000
0000
0100
,  // measure 87
1000
0000
0000
0000
0001
0000
0000
0100
0010
0000
0000
0000
0001
0000
0000
1000
,  // measure 88
0100
0000
0000
0000
;
