#TITLE:musicflirte;
#SUBTITLE:;
#ARTIST:Natalya Swan;
#TITLETRANSLIT:;
#SUBTITLETRANSLIT:;
#ARTISTTRANSLIT:;
#GENRE:;
#CREDIT:;
#BANNER:;
#BACKGROUND:;
#LYRICSPATH:;
#CDTITLE:;
#MUSIC:Musicflirte.ogg;
#OFFSET:0.000000;
#SAMPLESTART:100.059883;
#SAMPLELENGTH:12.000000;
#SELECTABLE:YES;
#BPMS:0.000000=150.000000
;
#STOPS:
;
#BGCHANGES:;
#KEYSOUNDS:;
#ATTACKS:;

//---------------dance-single - ----------------
#NOTES:
     dance-single:
     :
     Hard:
     14:
     0.647658,0.798466,0.005353,0.000000,0.104375,847.000000,846.000000,1.000000,0.000000,0.000000,0.000000,0.647658,0.798466,0.005353,0.000000,0.104375,847.000000,846.000000,1.000000,0.000000,0.000000,0.000000:
// measure 0
0000
0000
0000
0000
,  // measure 1
0000
0000
0000
0000
,  // measure 2
0000
0000
0000
0000
,  // measure 3
0000
0000
0000
0000
,  // measure 4
0000
0000
0000
0000
,  // measure 5
0000
0000
0000
0000
,  // measure 6
0000
0000
0000
0000
,  // measure 7
0000
0000
0000
0000
,  // measure 8
0001
0100
0010
0001
0100
0001
1000
0100
,  // measure 9
0100
0010
0001
0100
0001
0100
0010
0001
,  // measure 10
1000
0001
0100
0010
0001
0100
0001
0100
,  // measure 11
0010
0001
0100
0001
0100
0010
0001
1000
,  // measure 12
0100
0001
0100
0010
0001
0100
0001
0100
,  // measure 13
0010
0001
0100
0001
0100
0010
0001
1000
,  // measure 14
0001
0100
0010
0001
0100
0001
0100
0010
,  // measure 15
0001
0100
0001
0100
0010
0001
1000
0001
,  // measure 16
0100
0000
0010
0001
0100
0000
0100
0010
,  // measure 17
0000
0100
0000
0010
0001
0100
0010
0100
,  // measure 18
0010
0000
0001
1000
0100
0000
0010
0100
,  // measure 19
0000
0010
0000
0001
0100
0010
0100
0000
,  // measure 20
0100
0010
0001
0100
0001
1000
0100
0100
,  // measure 21
0010
0001
0100
0001
0100
0010
0001
0100
,  // measure 22
0001
0100
0010
0001
0100
0001
0100
0010
,  // measure 23
0001
0100
0001
0100
0010
0001
0100
0001
,  // measure 24
0100
0010
0001
0100
0001
0100
0010
0001
,  // measure 25
0100
0001
1000
0100
0001
1000
0100
0010
,  // measure 26
0001
0100
0001
0100
0010
0001
0100
0001
,  // measure 27
0100
0010
0001
0100
0001
0100
0010
0001
,  // measure 28
0100
0001
0100
0010
0001
0100
0001
1000
,  // measure 29
0100
0010
0100
0010
0001
0100
0001
0100
,  // measure 30
0010
0001
0100
0001
0100
0010
0001
1000
,  // measure 31
0001
0100
0010
0001
0100
0001
0100
0010
,  // measure 32
0001
0100
0001
0100
0010
0001
0100
0001
,  // measure 33
0100
0010
0001
1000
0001
0100
0010
0001
,  // measure 34
0100
0001
0100
0010
0001
0100
0001
0100
,  // measure 35
0010
0001
1000
0001
0100
0010
0001
0100
,  // measure 36
0001
0100
0010
0001
0100
0001
0100
0010
,  // measure 37
0001
0100
0001
0100
0010
0001
0100
0001
,  // measure 38
0100
0010
0001
0100
0001
0100
0010
0001
,  // measure 39
0100
0001
0100
0010
0001
0100
0001
1000
,  // measure 40
0100
0100
0010
0001
0100
0001
0100
0010
,  // measure 41
0100
1000
0100
0100
0010
0001
0010
0001
,  // measure 42
0100
0010
0010
0001
0010
0010
0100
0010
,  // measure 43
0001
0010
0001
0010
0100
0010
0001
0010
,  // measure 44
0100
0001
0100
0001
0100
0001
0010
0001
,  // measure 45
0100
0010
0001
0100
0001
0100
0010
0001
,  // measure 46
0100
0001
0100
0010
0001
0100
0001
0100
,  // measure 47
0010
0001
1000
0001
0100
0010
0001
0100
,  // measure 48
0001
0100
0010
0001
0100
0001
0100
0010
,  // measure 49
0001
1000
0001
0100
0010
0001
0100
0001
,  // measure 50
0100
0010
0001
0100
0001
0100
0010
0001
,  // measure 51
0100
0001
0100
0010
0001
0100
0001
0100
,  // measure 52
1000
0100
0010
0001
0100
0001
0100
0010
,  // measure 53
0001
0100
0001
0100
0010
0001
0100
0001
,  // measure 54
0100
0010
0001
0100
0001
0100
0010
0001
,  // measure 55
0100
0001
0100
0010
0001
0100
0001
0100
,  // measure 56
1000
0010
0100
0010
0001
0100
0001
0100
,  // measure 57
0010
0000
0001
0000
0100
0000
0001
0000
0100
0000
0010
0000
0001
0100
0001
0100
,  // measure 58
1000
0100
0010
0001
1000
0001
0100
0010
,  // measure 59
0001
0100
0001
0100
0010
0001
0100
0001
,  // measure 60
0100
0010
0001
0100
0001
0100
0010
0100
,  // measure 61
1000
0100
0010
0100
0001
0100
0001
0100
,  // measure 62
0010
0001
0100
0001
0100
0010
0001
1000
,  // measure 63
0100
0010
0001
0100
0010
0001
0100
0001
,  // measure 64
0100
0010
0001
0100
0001
0100
0010
0001
,  // measure 65
0100
0001
0100
0010
0001
0100
0001
0100
,  // measure 66
1000
0010
0100
0010
0100
0010
0100
1000
,  // measure 67
0100
0010
0100
0010
0100
0001
0100
0010
,  // measure 68
0100
1000
0100
0010
0001
0100
0001
0100
,  // measure 69
0010
0001
0100
0001
0100
0010
0001
0100
,  // measure 70
0001
0100
0010
0001
0100
0001
0100
0010
,  // measure 71
0001
1000
0001
0100
0010
0001
0100
0001
,  // measure 72
0100
0010
0001
0100
0001
0100
0010
0001
,  // measure 73
0100
0001
0100
0010
0001
0100
0001
0100
,  // measure 74
1000
0001
0100
0000
0010
0100
0100
0000
,  // measure 75
1001
0001
0100
1000
0000
0001
0100
0010
,  // measure 76
0000
0001
0100
1000
0010
0001
0100
1000
,  // measure 77
0000
0000
0001
0000
0100
0000
0010
0000
0000
0000
0001
0000
0100
0000
1000
0010
,  // measure 78
0000
0100
0010
0001
0100
0001
0100
1000
,  // measure 79
0000
0000
0001
0000
0100
0000
0010
0000
0000
0000
0001
0000
0100
0000
1000
0001
,  // measure 80
0000
0100
0010
0001
0100
0001
0100
1000
,  // measure 81
0000
0001
0100
0010
0000
0001
0100
1000
,  // measure 82
0010
0100
0010
0001
0100
0001
0100
1000
,  // measure 83
0100
0001
0010
0000
0100
0001
1000
0000
0100
0001
0010
0000
0100
0001
0010
0000
,  // measure 84
0001
0100
1000
0000
0001
0100
0010
0000
0001
0100
0010
0000
0001
0100
1000
0000
,  // measure 85
0001
0100
0010
0000
0001
0100
0010
0000
0001
0100
0010
0000
0001
0100
1000
0000
,  // measure 86
0001
0100
0010
0000
0001
0100
0010
0000
0001
0100
0010
0000
0001
1000
0100
0000
,  // measure 87
0010
0100
0001
0000
0010
0001
0100
0000
0100
0001
0010
0000
0010
0001
0100
0000
,  // measure 88
0010
0001
0100
0000
0010
0001
0100
0000
1000
0001
0100
0000
0010
0001
0100
0000
,  // measure 89
0001
0100
0010
0000
0001
0100
0010
0000
0001
0100
0010
0000
0001
0100
1000
0000
,  // measure 90
0001
0100
0010
0000
0001
0100
0010
0000
0001
0100
0010
0000
0100
0010
0001
0100
,  // measure 91
1000
0010
0100
0001
0100
0001
0010
0100
,  // measure 92
0010
0000
0010
0000
0001
0000
0100
0000
0001
0000
0100
0000
0010
0000
0001
0100
,  // measure 93
1000
0010
0001
0100
0010
0001
0100
0001
,  // measure 94
0100
0000
0010
0000
0001
0000
0100
0000
0001
0000
0100
0000
0010
0000
0001
0100
,  // measure 95
1000
0010
0100
0010
0001
0100
0001
0100
,  // measure 96
0010
0001
1000
0001
0100
0010
0001
0100
,  // measure 97
1000
0010
0001
0100
0010
0001
0100
0001
,  // measure 98
0100
0010
0001
1000
0001
0100
0010
0000
,  // measure 99
0100
0001
1000
0001
0010
0100
0001
0010
,  // measure 100
0100
0010
0001
0100
0001
0100
1000
0000
,  // measure 101
0100
0010
0001
0100
0010
0001
1000
0001
,  // measure 102
0100
0010
0001
0100
0001
0100
1000
0000
,  // measure 103
0100
0010
0001
0100
0010
0001
1000
0001
,  // measure 104
0100
0010
0001
0100
0001
0100
1000
0000
,  // measure 105
0100
0010
0001
0100
0010
0001
0100
0001
,  // measure 106
0100
0010
0001
1000
0001
0100
0010
0000
,  // measure 107
0001
0100
0010
0001
0000
0100
0000
1000
,  // measure 108
0000
0001
0000
0100
0000
0001
0000
0010
,  // measure 109
0010
0001
0100
1000
0000
0010
0000
0001
,  // measure 110
0000
0100
0000
0010
0001
0000
0100
0000
,  // measure 111
0010
0001
0100
1000
0000
0001
0000
0100
,  // measure 112
0000
0010
0000
0001
0000
0100
0000
1000
,  // measure 113
0100
0010
0001
0100
0000
0010
0000
0001
,  // measure 114
0000
0100
0000
0010
0001
1000
0100
0000
;
