#VERSION:0.83;
#TITLE:muevelo;
#SUBTITLE:;
#ARTIST:Kali Uchis;
#TITLETRANSLIT:;
#SUBTITLETRANSLIT:;
#ARTISTTRANSLIT:;
#GENRE:;
#ORIGIN:;
#CREDIT:;
#BANNER:;
#BACKGROUND:;
#PREVIEWVID:;
#JACKET:;
#CDIMAGE:;
#DISCIMAGE:;
#LYRICSPATH:;
#CDTITLE:;
#MUSIC:Kali Uchis - Muévelo (Audio).ogg;
#OFFSET:0.000000;
#SAMPLESTART:100.059883;
#SAMPLELENGTH:12.000000;
#SELECTABLE:YES;
#BPMS:0.000=114.000;
#STOPS:0.000=0.100;
#DELAYS:;
#WARPS:;
#TIMESIGNATURES:0.000=4=4;
#TICKCOUNTS:0.000=4;
#COMBOS:0.000=1;
#SPEEDS:0.000=1.000=0.000=0;
#SCROLLS:0.000=1.000;
#FAKES:;
#LABELS:0.000=Song Start;
#BGCHANGES:;
#KEYSOUNDS:;
#ATTACKS:
;

//---------------dance-single - ----------------
#NOTEDATA:;
#CHARTNAME:;
#STEPSTYPE:dance-single;
#DESCRIPTION:;
#CHARTSTYLE:;
#DIFFICULTY:Hard;
#METER:14;
#RADARVALUES:0.557625,0.586633,0.007838,0.062705,0.623129,498.000000,497.000000,1.000000,8.000000,0.000000,0.000000,0.000000,0.000000,0.000000,0.557625,0.586633,0.007838,0.062705,0.623129,498.000000,497.000000,1.000000,8.000000,0.000000,0.000000,0.000000,0.000000,0.000000;
#CREDIT:;
#NOTES:
// measure 0
0000
0000
0000
0000
,  // measure 1
0000
0000
0000
0000
,  // measure 2
0000
0000
0000
0000
,  // measure 3
0100
0000
0100
0000
0100
0000
0200
0000
0000
0000
0000
0000
0000
0000
0000
0000
0000
0000
0300
0000
0000
0010
0000
0000
,  // measure 4
0100
0000
0000
0010
0100
0000
0100
0000
1000
0000
0000
0010
0001
0000
0100
0000
,  // measure 5
1000
1000
0001
0200
0000
0000
0300
0010
,  // measure 6
0001
0000
0000
0100
0010
0000
0001
0000
0100
0000
0000
0010
0001
0000
0100
0000
,  // measure 7
1000
0100
0010
0200
0000
0300
0001
0100
,  // measure 8
1000
0000
0100
0001
1000
0100
0010
0001
,  // measure 9
1000
0001
0100
1000
0000
0000
0100
0010
,  // measure 10
1000
0100
0000
0001
0010
0000
0100
0000
0001
0000
0000
1000
0100
0000
0100
0000
,  // measure 11
0010
0000
0001
0100
0000
0000
0100
0010
,  // measure 12
1000
0001
0000
0100
0010
0000
0100
0000
0010
0100
0000
0001
1000
0000
0100
0000
,  // measure 13
0001
0010
0000
0100
0001
0000
1000
0000
0100
0010
0000
0100
0001
0000
0001
0000
,  // measure 14
0100
0010
0000
0001
0010
0000
0100
0001
0000
1000
0100
0000
0010
0000
0100
0000
,  // measure 15
0001
1000
0000
0100
0001
0000
0010
0000
0100
1000
0000
0001
0100
0000
0100
0000
,  // measure 16
0010
0001
0000
1000
0100
0000
0001
0000
0010
0100
0000
0001
1000
0000
0001
0000
,  // measure 17
0100
0010
0000
0001
0100
0000
0010
0000
0100
0010
0000
0001
1000
0000
0100
0000
,  // measure 18
0010
0001
0000
0100
0010
0000
0100
0010
0000
0001
0010
0000
0100
0000
0010
0000
,  // measure 19
1000
0001
0000
0010
0100
0000
0010
0000
1000
0100
0000
0001
0010
0000
0100
0000
,  // measure 20
0100
0001
1000
0000
0100
0000
0010
0000
0100
0000
0000
0000
0010
0000
0100
0000
,  // measure 21
0000
0100
0010
0000
0100
0000
0001
0010
,  // measure 22
1000
0100
0001
0100
0010
0000
0010
0100
0000
0001
0000
0000
0000
0000
0000
0000
,  // measure 23
0100
0010
0001
1000
0001
0000
0100
0100
,  // measure 24
0010
0010
0001
0100
1000
0100
0001
0000
0010
0000
0000
0000
0000
0010
0100
0001
,  // measure 25
1000
0001
1000
0100
0001
0100
0010
0000
0000
0000
0000
0000
2002
0000
0000
0000
,  // measure 26
3003
0000
0010
0000
0100
0000
0010
0100
0001
1000
0001
0010
0100
0000
0100
0000
,  // measure 27
0010
0000
0001
0100
1000
0000
0001
0000
0100
0001
1000
0001
0100
0000
1000
0000
,  // measure 28
0010
0000
0100
0001
1000
0001
0010
0100
0001
0000
1000
0000
0000
0000
0001
0100
,  // measure 29
1000
0100
0010
0001
0010
0000
0100
0000
0000
0010
0100
0001
1000
0000
0100
0000
,  // measure 30
0000
0000
0010
0100
0001
1000
0100
0000
0010
0000
0100
0001
1000
0000
0001
0000
,  // measure 31
0010
0001
1000
0001
0100
0000
0010
0001
0100
0000
0010
0100
0001
0000
1000
0000
,  // measure 32
0100
0010
0100
0010
0001
1000
0001
0100
,  // measure 33
1000
0100
0001
0100
1000
0000
0100
0010
,  // measure 34
1000
0100
0000
0001
0010
0000
0100
0000
0010
0001
0000
0010
0100
0000
0100
0000
,  // measure 35
0010
0000
0001
0000
0010
0000
0001
0000
0010
0100
0001
0000
0100
0000
0010
0000
,  // measure 36
1000
0100
0000
0001
0010
0000
0010
0000
0100
0001
0000
1000
0100
0000
0100
0000
,  // measure 37
1000
0100
0000
0001
0010
0000
0100
0001
1000
0010
0100
0010
0100
0000
0010
0000
,  // measure 38
0001
0100
0000
1000
0100
0000
0010
0001
0000
0010
0100
0000
0001
0000
0010
0000
,  // measure 39
0010
0001
0000
0100
0010
0000
0100
0000
0001
0010
0000
0100
0001
0000
1000
0000
,  // measure 40
0100
0010
0000
0001
0010
0000
0001
0000
0010
0100
0000
0001
1000
0000
0100
0000
,  // measure 41
0010
0001
0000
1000
0100
0000
0010
0000
0010
0100
0001
1000
0001
0000
0010
0000
,  // measure 42
0010
0100
0000
0001
0100
0000
0010
0100
0000
0001
1000
0000
0100
0000
0010
0000
,  // measure 43
0100
0001
0000
0100
0010
0000
0010
0000
0100
0001
0000
0010
0100
0000
0001
0000
,  // measure 44
0100
0001
0000
0010
0100
0000
0001
0000
1000
0100
0000
0001
0010
0000
0001
0000
,  // measure 45
0010
0000
0000
0100
0000
0000
0001
0000
0000
0100
0010
0000
0100
0000
0001
0000
,  // measure 46
1000
0100
0000
0001
0010
0000
0010
0001
0000
1000
0100
0000
0001
0000
0010
0000
,  // measure 47
0100
0001
0000
0010
0100
0000
0001
0000
1000
0100
0000
0001
0010
0000
0100
0000
,  // measure 48
0001
1000
0000
0100
0001
0000
0010
0000
0100
0001
0000
0010
0100
0000
0001
0000
,  // measure 49
0100
0001
0000
0010
0100
0000
0001
0000
0010
0100
0001
1000
0001
0000
0010
0000
,  // measure 50
0100
0010
0000
0100
0001
0000
1000
0100
0000
0001
0010
0000
0100
0000
0001
0000
,  // measure 51
0010
0100
0000
0001
1000
0000
0100
0000
0001
0010
0000
0100
0001
0000
0100
0000
,  // measure 52
0010
0000
0000
0001
0200
0000
0000
0000
,  // measure 53
0300
0000
0100
0001
2000
0000
0000
0000
,  // measure 54
3000
0000
0100
0001
0020
0000
0000
0000
,  // measure 55
0030
0000
0100
0010
0001
0001
0001
0001
,  // measure 56
0000
0000
0010
0001
1000
0001
0100
1000
0000
0010
0100
0001
1000
0001
0010
0000
,  // measure 57
0000
0000
0000
0000
0000
0000
0000
0000
1000
0100
0001
0100
0001
0000
0000
0000
,  // measure 58
0001
0100
0010
0001
0100
0001
0100
0010
0001
1000
0001
0100
1000
0000
0000
0000
,  // measure 59
0000
0000
0000
0000
0000
0000
0000
0000
0010
0001
0100
0001
1000
0000
0100
0000
;
