#TITLE:mouth go lala;
#SUBTITLE:;
#ARTIST:Armin Van Buren, Maddix, & Caroline Roxy;
#TITLETRANSLIT:;
#SUBTITLETRANSLIT:;
#ARTISTTRANSLIT:;
#GENRE:;
#CREDIT:;
#BANNER:;
#BACKGROUND:;
#LYRICSPATH:;
#CDTITLE:;
#MUSIC:Mouth Go LaLa (Extended Mix).ogg;
#OFFSET:0.000000;
#SAMPLESTART:100.059883;
#SAMPLELENGTH:12.000000;
#SELECTABLE:YES;
#BPMS:0.000000=150.000000
;
#STOPS:360.000000=6.000000,
361.000000=2.800000,
362.000000=3.200000,
554.000000=3.200000,
568.000000=0.800000
;
#BGCHANGES:;
#KEYSOUNDS:;
#ATTACKS:;

//---------------dance-single - ----------------
#NOTES:
     dance-single:
     :
     Hard:
     14:
     0.609390,0.920229,0.168424,0.015311,0.258761,1393.000000,1338.000000,55.000000,5.000000,0.000000,0.000000,0.609390,0.920229,0.168424,0.015311,0.258761,1393.000000,1338.000000,55.000000,5.000000,0.000000,0.000000:
// measure 0
0000
0000
0000
0000
,  // measure 1
0000
0000
0000
0000
,  // measure 2
0000
0000
0000
0000
,  // measure 3
0000
0000
0000
0000
,  // measure 4
0010
0001
1000
0001
0100
0001
0100
0010
,  // measure 5
0100
0001
0100
0010
0001
0100
0001
0100
,  // measure 6
1000
0100
1000
0100
1000
0100
0100
0100
,  // measure 7
0010
0010
0001
0010
0010
0010
0100
0100
,  // measure 8
0010
0001
0100
0001
0100
0001
0100
0100
,  // measure 9
1000
0100
0010
0100
0010
0100
0010
0100
,  // measure 10
0010
0100
0010
0100
0010
0100
1000
0100
,  // measure 11
0100
0010
0100
0010
0100
0010
0100
0010
,  // measure 12
0100
0010
0100
1000
0100
0010
0100
0001
,  // measure 13
0100
0001
0010
0100
0100
0010
0100
0010
,  // measure 14
0100
1000
0100
0010
0100
0010
0100
0010
,  // measure 15
0100
0010
0001
0100
0001
0100
0010
0001
1000
0001
0100
0010
0001
0100
0001
0100
,  // measure 16
1000
0010
0100
0010
0100
0010
0100
0010
,  // measure 17
0100
0010
0100
0010
0100
0010
0100
1000
,  // measure 18
0100
0010
0100
0010
0100
0010
0100
0010
,  // measure 19
0100
0010
0100
0010
0100
0010
0100
0010
,  // measure 20
0100
1000
0100
0010
0001
0100
0001
0100
,  // measure 21
0010
0001
0100
0001
0100
0010
0001
0100
,  // measure 22
0001
0100
0010
0001
0100
0001
0100
0010
,  // measure 23
0001
0100
0001
0100
0010
0100
0001
0100
,  // measure 24
1000
0010
0100
0001
0100
0000
0010
0000
,  // measure 25
0100
0001
0100
1000
0100
0000
0010
0000
,  // measure 26
0100
0010
0001
0100
0001
0000
0100
0000
,  // measure 27
0010
0001
0100
0001
0100
0000
1000
0000
,  // measure 28
0100
0010
0001
0100
0001
0000
0100
0000
,  // measure 29
0010
0100
0001
0100
1000
0000
0100
0000
,  // measure 30
0010
0001
0100
0001
0100
0000
0010
0000
,  // measure 31
0100
0010
0001
0100
0001
0100
0010
0001
0100
0001
0100
0010
0001
0100
0001
0100
,  // measure 32
1000
0010
0100
0001
0100
0000
0000
0000
,  // measure 33
0010
0100
0001
0100
1000
0000
0000
0000
,  // measure 34
0001
0100
0001
0100
1000
0000
0100
0000
,  // measure 35
0010
0100
0001
1000
0100
0000
0000
0000
,  // measure 36
0001
0100
0001
0100
1000
0000
0000
0000
,  // measure 37
0010
0100
0001
0100
0010
0000
0000
0000
,  // measure 38
0001
1000
0001
0100
0010
0000
0001
0100
,  // measure 39
0010
0100
0001
0100
1000
0000
0000
0000
,  // measure 40
0010
0001
0100
1000
0100
0000
0000
0000
,  // measure 41
0100
0010
0100
0001
0100
0000
0000
0000
,  // measure 42
0010
0100
0001
0100
1000
0000
0100
0000
,  // measure 43
0100
0010
0001
0100
0010
0000
0000
0000
,  // measure 44
0110
0001
0100
0001
1100
0000
0000
0000
,  // measure 45
0110
0100
0010
0100
0110
0000
0000
0000
,  // measure 46
0101
0100
0001
0100
1001
0000
0010
0000
,  // measure 47
0101
0001
0101
0101
0101
0000
0101
0000
,  // measure 48
1001
0000
0000
1000
1001
0000
0000
0001
,  // measure 49
1001
0000
0101
0000
0110
0000
0110
0110
,  // measure 50
0100
0010
0001
0100
1000
0000
0000
0000
,  // measure 51
0010
0100
0001
0100
1000
0000
0000
0000
,  // measure 52
0010
0100
0001
0100
1000
0000
0100
0000
,  // measure 53
0010
0100
0001
0100
1000
1100
1100
0000
,  // measure 54
0010
0100
0001
0100
1000
0000
0000
0000
,  // measure 55
0100
0010
0010
0100
1000
0000
0000
0000
,  // measure 56
0100
0010
0001
0100
0001
0000
0100
0010
,  // measure 57
0001
0000
0100
0000
0001
0000
1000
0000
0100
0000
0000
0010
0000
0100
0001
0000
,  // measure 58
0100
0010
0001
0100
1000
0010
0100
0100
,  // measure 59
0010
0100
0001
0100
0010
0100
0010
0001
,  // measure 60
0100
0001
0100
0001
0100
0010
0001
0100
,  // measure 61
0001
0100
0010
0100
0001
1100
1100
0000
,  // measure 62
0001
0100
0010
0001
0100
0001
0100
0010
,  // measure 63
0001
0100
0001
0100
0010
0001
0100
0001
,  // measure 64
1000
0001
0100
0010
0001
0100
0001
0100
,  // measure 65
0010
0100
0001
0010
0001
0100
0010
0001
0100
0001
0100
0010
0001
0100
0001
0100
,  // measure 66
1000
0000
0100
0001
0010
0000
0010
0000
,  // measure 67
0100
0010
0001
0100
0001
0100
0001
1000
,  // measure 68
0100
0000
0001
0100
1000
0000
0010
0000
,  // measure 69
0010
0001
0100
0010
0001
0100
0001
0100
,  // measure 70
1000
0000
0001
0100
0001
0000
0100
0000
,  // measure 71
0010
0000
0001
1000
0100
0000
0010
0000
,  // measure 72
0100
0000
0010
0001
0100
0000
0010
0001
,  // measure 73
0100
0010
0100
0010
,  // measure 74
0110
0010
0100
0010
,  // measure 75
0100
0010
0100
0010
,  // measure 76
0100
0010
0100
0010
,  // measure 77
0100
0010
0001
0100
,  // measure 78
0001
0100
0010
0001
,  // measure 79
1000
0001
0100
0010
,  // measure 80
0001
0100
0001
0100
,  // measure 81
0001
0000
0000
0000
0100
0000
0000
0000
0010
0001
0100
0010
1000
0000
0010
0001
,  // measure 82
0020
0030
0200
0300
,  // measure 83
0020
0000
0000
0000
,  // measure 84
0000
0000
0000
0000
,  // measure 85
0000
0000
0000
0030
,  // measure 86
0001
0100
1000
0100
0100
1000
0010
0100
,  // measure 87
0010
0100
0010
0001
0100
0001
0100
0010
,  // measure 88
0100
0001
0100
0001
0100
0001
0100
0001
0100
0001
0100
0001
0100
0001
0100
0010
,  // measure 89
0002
0000
0000
0003
,  // measure 90
0000
0000
0100
0010
0001
1000
0010
0100
,  // measure 91
0010
0000
0000
0000
0001
0100
0001
0100
,  // measure 92
1000
0000
0000
0000
0010
0100
0001
0100
,  // measure 93
1000
0000
0100
0000
0010
0100
0001
1000
,  // measure 94
1000
0000
0000
0000
0010
0100
0001
0100
,  // measure 95
1000
0000
0000
0000
0010
0100
0001
0100
,  // measure 96
1000
0000
0000
0000
0001
1000
0001
0100
,  // measure 97
0010
0000
0100
0010
0001
0100
0001
0100
,  // measure 98
1000
0100
0010
0001
,  // measure 99
1000
0001
0100
0010
,  // measure 100
0001
0100
0001
0100
,  // measure 101
0001
0100
0001
0100
,  // measure 102
0010
0001
0100
0001
,  // measure 103
0100
0001
0100
0001
,  // measure 104
0100
0010
0001
1000
,  // measure 105
0001
0100
0010
0001
,  // measure 106
0100
0000
0001
0000
0100
0000
0000
0001
,  // measure 107
0100
0010
0001
0100
,  // measure 108
1000
0000
0100
0001
0011
0000
0100
0010
,  // measure 109
0001
0100
0010
0001
,  // measure 110
0100
0000
0001
0010
0100
0000
0001
0100
,  // measure 111
1000
0000
0100
0000
0010
0000
0001
0100
,  // measure 112
1000
0000
0100
0000
0001
0000
0010
0100
,  // measure 113
0001
0000
0010
0001
0100
0000
0100
0000
,  // measure 114
0001
0000
0010
0000
0110
0000
0100
0001
,  // measure 115
0010
0100
0001
0001
,  // measure 116
0100
0000
0010
0100
0001
0000
0001
0100
,  // measure 117
1000
0010
0001
0100
,  // measure 118
0010
0000
0001
0100
1000
0000
0100
0001
,  // measure 119
0010
0000
0001
0100
0010
0000
0001
1000
,  // measure 120
0100
0000
0001
0100
1000
0000
0001
0100
,  // measure 121
1000
0000
0010
0001
0100
0000
0100
0000
,  // measure 122
0010
0100
0001
0000
0010
0100
0001
0100
,  // measure 123
1000
0000
0000
0000
0100
0001
0100
0001
,  // measure 124
0010
0000
0000
0000
0001
0100
0001
0100
,  // measure 125
1000
0000
0010
0000
0001
0100
0001
0100
,  // measure 126
1000
0000
0000
0000
0010
0100
0001
0100
,  // measure 127
1000
0000
0000
0000
0001
0100
0001
0100
,  // measure 128
1000
0000
0000
0000
0001
1000
0001
0100
,  // measure 129
0010
0000
1000
0100
0001
0100
0010
0100
,  // measure 130
1000
0000
0000
0000
1001
0010
0010
0001
,  // measure 131
0100
0000
0101
0101
,  // measure 132
0110
0110
0110
0101
,  // measure 133
0101
0110
1001
0110
,  // measure 134
0110
1100
0110
0110
,  // measure 135
0101
0110
0110
1100
,  // measure 136
0110
0110
0110
0110
,  // measure 137
0110
1100
0110
0101
,  // measure 138
0101
0000
0110
0000
1001
0010
0001
0100
,  // measure 139
1000
0000
0000
0000
0001
0100
0001
0100
,  // measure 140
1000
0000
0000
0000
0100
0010
0001
0100
,  // measure 141
1000
0000
0100
0010
0001
0100
0001
0100
,  // measure 142
2000
0000
0000
3000
,  // measure 143
0100
0000
0010
0100
0000
0001
1000
0100
0010
0100
0001
1000
0001
0010
0100
0001
,  // measure 144
0010
0000
0001
1000
0000
0100
0001
0100
0001
0100
0010
0100
0001
1000
0001
0010
,  // measure 145
0100
0000
0010
0100
0000
0001
1000
0100
0001
0100
0001
1000
0001
0010
0100
0001
,  // measure 146
0010
0000
0100
0001
0000
0010
0100
0001
1000
0001
0010
0100
0001
0100
0001
0010
,  // measure 147
0100
0000
0010
0100
0000
0001
1000
0100
0001
0100
0001
0010
0100
0001
0100
0001
,  // measure 148
0010
0000
0100
0001
0000
0100
0010
0001
0100
0001
0100
0010
0001
0100
0001
0100
,  // measure 149
1000
0000
0100
0001
0000
0100
0010
0100
0001
0100
0010
0001
0100
0001
0100
1000
,  // measure 150
0100
0000
0001
0100
0000
0010
0100
0001
1000
0001
0010
0100
0001
0100
0001
0010
,  // measure 151
0100
0000
0010
0100
0000
0001
1000
0100
0001
0100
0001
0100
0010
0100
0001
0100
,  // measure 152
0001
0000
0100
1000
0000
0010
0100
0001
1000
0001
0010
0100
0001
0100
0001
0010
,  // measure 153
0100
0000
0100
0010
0000
0100
0010
0001
0100
0001
0100
0010
0100
0000
0010
0000
,  // measure 154
0001
0000
1000
0100
0000
0001
0100
0001
0100
0001
0100
0010
0100
0001
0010
0100
,  // measure 155
0001
0000
0100
1000
0000
0010
0100
0001
0100
0001
0010
0100
0001
1000
0001
0010
,  // measure 156
0100
0000
0100
0010
0000
0100
0010
0001
0100
0001
0100
0010
0100
0001
1000
0100
,  // measure 157
0010
0000
0100
0001
0000
0010
0100
0001
1000
0001
0010
0100
0001
0100
0001
0010
,  // measure 158
0100
0000
0010
0100
0000
0001
1000
0100
0001
0100
0001
0100
0001
0010
0100
0001
,  // measure 159
0010
0000
0100
0001
0000
1000
0100
0001
0100
0010
0100
0001
0100
0001
0010
0100
,  // measure 160
0010
0000
0100
0010
0000
0001
0100
0010
0001
1000
0001
0100
0010
0100
0001
1000
,  // measure 161
0100
0100
0010
0100
0010
0100
0010
0100
0010
0100
0010
0100
0010
0100
0001
0100
,  // measure 162
1000
0010
0001
0100
0010
0100
0001
0100
,  // measure 163
1000
0100
0010
0100
0010
0100
1000
0010
,  // measure 164
0100
0010
0100
0010
0001
0001
0100
1000
,  // measure 165
0100
0010
0100
0010
0100
0001
0010
0100
,  // measure 166
0001
0100
0010
0001
1000
0001
0100
0010
,  // measure 167
0001
0100
0001
0100
0010
0001
0100
0001
,  // measure 168
0100
0010
0001
0100
0001
0100
0010
0001
,  // measure 169
0100
0001
0100
0010
0001
0100
0001
0100
,  // measure 170
1000
0010
0100
0010
0001
1000
0001
0100
,  // measure 171
0010
0001
0100
0001
0100
0010
0001
0100
,  // measure 172
0001
0100
0010
0100
0010
0001
0100
0001
,  // measure 173
0100
0010
0001
1000
0001
0100
0010
0001
,  // measure 174
0100
0001
0100
0010
0001
0100
0001
0100
,  // measure 175
0010
0001
0100
0001
0100
0010
0001
1000
,  // measure 176
0001
0100
0010
0001
0100
0001
0100
0010
,  // measure 177
0001
0100
0010
0000
0100
0010
0001
1000
,  // measure 178
0100
0010
0100
0010
0100
1000
0100
0100
,  // measure 179
0010
0100
0001
0100
1000
0100
0010
0001
,  // measure 180
0100
0001
0100
0010
0001
1000
0001
0100
,  // measure 181
0010
0001
0100
0001
0100
0010
0001
0100
,  // measure 182
0001
0100
0010
0001
1000
0001
0100
0001
,  // measure 183
0100
0010
0001
0100
0001
0100
0010
0100
,  // measure 184
1000
0100
0010
0100
0001
0010
0001
0100
,  // measure 185
0010
0001
0100
0001
0100
0001
0100
0010
,  // measure 186
0001
1000
0001
0100
0010
0001
0100
0001
,  // measure 187
0100
0010
0001
0100
0001
0100
0010
0001
,  // measure 188
0100
0001
0100
0010
0001
1000
0001
0100
,  // measure 189
0010
0001
0100
0001
0100
0001
0100
0010
,  // measure 190
0001
0100
0010
0001
0010
0001
0100
0010
,  // measure 191
0001
0100
0001
0100
0010
0001
0100
0001
,  // measure 192
0100
0010
0001
0100
0001
0100
0010
0001
,  // measure 193
0100
0001
0100
0010
0100
0001
0100
0100
;
