#VERSION:0.83;
#TITLE:mother;
#SUBTITLE:;
#ARTIST:Unknown artist;
#TITLETRANSLIT:;
#SUBTITLETRANSLIT:;
#ARTISTTRANSLIT:;
#GENRE:;
#ORIGIN:;
#CREDIT:;
#BANNER:;
#BACKGROUND:;
#PREVIEWVID:;
#JACKET:;
#CDIMAGE:;
#DISCIMAGE:;
#LYRICSPATH:;
#CDTITLE:;
#MUSIC:Porter Robinson - Mother (Official Audio).ogg;
#OFFSET:0.000000;
#SAMPLESTART:100.059883;
#SAMPLELENGTH:12.000000;
#SELECTABLE:YES;
#BPMS:0.000=98.000;
#STOPS:0.000=0.300;
#DELAYS:;
#WARPS:;
#TIMESIGNATURES:0.000=4=4;
#TICKCOUNTS:0.000=4;
#COMBOS:0.000=1;
#SPEEDS:0.000=1.000=0.000=0;
#SCROLLS:0.000=1.000;
#FAKES:;
#LABELS:0.000=Song Start;
#BGCHANGES:;
#KEYSOUNDS:;
#ATTACKS:
;

//---------------dance-single - ----------------
#NOTEDATA:;
#CHARTNAME:;
#STEPSTYPE:dance-single;
#DESCRIPTION:;
#CHARTSTYLE:;
#DIFFICULTY:Hard;
#METER:10;
#RADARVALUES:0.377373,0.459475,0.022013,0.057235,0.072644,600.000000,595.000000,5.000000,13.000000,0.000000,0.000000,0.000000,0.000000,0.000000,0.377373,0.459475,0.022013,0.057235,0.072644,600.000000,595.000000,5.000000,13.000000,0.000000,0.000000,0.000000,0.000000,0.000000;
#CREDIT:;
#NOTES:
// measure 0
0000
0000
0000
0000
,  // measure 1
0000
0000
0000
0000
,  // measure 2
0100
0001
0010
0001
0100
0001
0100
0010
,  // measure 3
0001
0100
0001
0100
0010
0100
0001
0100
,  // measure 4
1000
0001
0100
0010
0001
0100
0001
0100
,  // measure 5
1000
0100
0010
0001
1000
0001
0100
0000
,  // measure 6
0001
0100
0010
0001
1000
0001
0100
0010
,  // measure 7
0001
0100
0001
0100
0010
0001
1000
0001
,  // measure 8
0100
0010
0001
0100
0001
0100
0010
0001
,  // measure 9
1000
0001
0100
0010
0001
0100
0001
0100
,  // measure 10
2000
0000
0000
0000
3000
0000
0100
0010
,  // measure 11
0001
0100
0001
1000
0100
0010
0001
0100
,  // measure 12
0020
0000
0000
0000
0030
0000
0100
0001
,  // measure 13
0001
1000
0001
0100
0001
0100
1000
0000
,  // measure 14
0200
0000
0000
0300
,  // measure 15
0010
0001
1000
0001
0100
0000
0000
0010
,  // measure 16
0001
1000
0001
0100
0001
0000
0100
1000
,  // measure 17
0000
0001
0000
0100
0000
0001
0100
0001
,  // measure 18
0200
0000
0000
0000
0000
0000
0300
0001
,  // measure 19
0100
0001
0100
1000
0010
0100
0001
0010
,  // measure 20
0200
0000
0000
0000
0000
0000
0300
0010
,  // measure 21
0001
0100
0001
0100
0001
0100
0001
0000
,  // measure 22
2000
0000
0000
0000
3000
0010
0001
1000
,  // measure 23
0100
0010
0001
0000
1000
0010
0100
0100
,  // measure 24
0010
0001
0100
0000
1000
0001
0100
0010
,  // measure 25
0100
0001
0100
0010
0001
0100
0001
0000
,  // measure 26
1001
0000
0010
0100
0011
0000
0100
0010
,  // measure 27
1000
0100
0001
0000
0001
0000
0100
1000
,  // measure 28
0001
0100
0001
0100
0010
0000
0100
1000
,  // measure 29
0001
0100
0001
0000
0100
0000
0000
0000
,  // measure 30
0001
0100
0010
0100
0001
0100
0001
1000
,  // measure 31
0100
0000
0001
0000
0100
0000
0000
0000
0100
0000
0010
0100
0001
1000
0001
0010
,  // measure 32
0100
0001
0000
2000
0000
0000
0000
0000
,  // measure 33
0000
0000
0000
0000
,  // measure 34
3000
0010
0001
0100
0001
1000
0100
0010
,  // measure 35
0001
0100
0010
0001
0100
0001
0100
0010
,  // measure 36
0001
0100
0001
0100
0010
0001
1000
0001
,  // measure 37
0100
0010
0001
0100
0001
0100
1000
0000
,  // measure 38
0100
0001
0100
0010
0001
1000
0001
0100
,  // measure 39
0010
0001
0100
0001
0100
0010
0001
1000
,  // measure 40
0001
0100
0010
0001
0100
0001
0100
0010
,  // measure 41
0001
1000
0001
0100
0010
0001
0100
0001
,  // measure 42
0100
0000
0010
0100
0000
0001
1000
0000
0100
0001
0000
0010
0100
0000
0001
1000
,  // measure 43
0100
0000
0010
0100
0000
0001
1000
0000
0100
0001
0000
0010
0100
0000
0001
1000
,  // measure 44
0100
0000
0001
0100
0000
0010
0001
0000
0100
1000
0000
0010
0001
0000
0010
0100
,  // measure 45
0001
0000
0100
1000
0000
0001
0100
0000
0010
0001
0000
0100
0010
0000
0001
1000
,  // measure 46
0100
0100
0010
0001
0100
1000
0100
0100
,  // measure 47
0010
0001
0100
0010
0001
0100
0001
0100
,  // measure 48
1000
0000
0010
0001
1000
0001
0100
0010
,  // measure 49
0100
0010
0001
0100
0001
0100
1000
0000
,  // measure 50
1001
0000
0001
0100
0011
0000
0001
0100
,  // measure 51
0001
0100
1000
0000
0010
0000
0100
0100
,  // measure 52
0000
0010
0001
0100
1000
0000
0001
0100
,  // measure 53
0010
0100
0001
0000
0100
0000
0000
0000
,  // measure 54
0010
0001
0100
1000
0001
0100
0010
0100
,  // measure 55
0010
0000
1000
0000
0001
0000
0000
0000
0010
0000
0100
0001
1000
0001
0010
0100
,  // measure 56
0001
0001
0000
0200
0000
0000
0000
0000
,  // measure 57
0000
0000
0000
0000
0300
0001
0100
1000
,  // measure 58
0100
0010
0001
0100
0010
0001
1000
0010
,  // measure 59
0100
0001
0100
1000
0010
0100
0010
1000
,  // measure 60
0010
0100
0010
1000
0001
0100
0010
1000
,  // measure 61
0001
0100
0010
1000
0001
0100
0010
1000
,  // measure 62
0001
0100
0010
1000
0001
0100
0001
0100
,  // measure 63
0010
0100
0001
0001
0010
0100
0001
0100
,  // measure 64
0001
0010
0001
0100
0001
0100
0010
0001
,  // measure 65
1000
0001
0100
0010
0001
0100
0001
0100
,  // measure 66
2002
0000
3003
1000
,  // measure 67
0100
0000
0010
0100
0001
0000
0001
0100
,  // measure 68
1000
0010
0100
0000
0010
0000
0100
1000
,  // measure 69
0100
0010
0001
0100
1000
0000
0010
0001
,  // measure 70
0100
0001
0100
0000
1000
0000
0000
0000
,  // measure 71
0010
0100
0001
1000
0100
0010
0001
1000
,  // measure 72
0001
0000
0100
0000
0001
0000
0000
0000
0100
0000
0000
0000
0010
0001
0100
0000
,  // measure 73
0000
0100
0000
0020
0000
0000
0000
0000
,  // measure 74
0000
0000
0030
0000
0000
0000
0010
0001
0200
0000
0300
0000
0100
0001
1000
0100
,  // measure 75
0001
0100
0010
0001
0100
0001
0100
0010
,  // measure 76
0001
0100
0010
0001
1000
0001
0100
0010
,  // measure 77
0001
0100
0001
0100
0010
0001
1000
0001
,  // measure 78
0100
0010
0001
0100
0001
0100
1000
0000
,  // measure 79
0001
0100
0010
0001
0100
0001
0100
0010
,  // measure 80
0001
1000
0001
0100
0010
0001
0100
0001
,  // measure 81
0100
1000
0100
0010
0001
0100
0001
0100
,  // measure 82
0001
0100
0010
0001
1000
0001
0100
0000
,  // measure 83
0010
0000
0100
0001
0100
0000
0100
0010
,  // measure 84
0001
0100
1000
0000
0010
0000
0001
0100
,  // measure 85
0010
0001
0001
0100
1000
0000
0010
0001
,  // measure 86
0100
0001
0100
0000
1000
0000
0100
0010
,  // measure 87
0001
0100
0001
0100
1000
0010
0001
0100
,  // measure 88
1000
0000
0001
0000
0100
0000
0000
0000
0010
0000
0100
0001
1000
0001
0010
0100
,  // measure 89
0001
0100
0000
0020
0000
0000
0000
0000
,  // measure 90
0000
0000
0000
0130
;
