#VERSION:0.83;
#TITLE:miss u!;
#SUBTITLE:;
#ARTIST:irou;
#TITLETRANSLIT:;
#SUBTITLETRANSLIT:;
#ARTISTTRANSLIT:;
#GENRE:;
#ORIGIN:;
#CREDIT:;
#BANNER:;
#BACKGROUND:;
#PREVIEWVID:;
#JACKET:;
#CDIMAGE:;
#DISCIMAGE:;
#LYRICSPATH:;
#CDTITLE:;
#MUSIC:irou - miss u! (visualizer).ogg;
#OFFSET:0.000000;
#SAMPLESTART:100.059883;
#SAMPLELENGTH:12.000000;
#SELECTABLE:YES;
#BPMS:0.000=120.000;
#STOPS:;
#DELAYS:;
#WARPS:;
#TIMESIGNATURES:0.000=4=4;
#TICKCOUNTS:0.000=4;
#COMBOS:0.000=1;
#SPEEDS:0.000=1.000=0.000=0;
#SCROLLS:0.000=1.000;
#FAKES:;
#LABELS:0.000=Song Start;
#BGCHANGES:;
#KEYSOUNDS:;
#ATTACKS:
;

//---------------dance-single - ----------------
#NOTEDATA:;
#CHARTNAME:;
#STEPSTYPE:dance-single;
#DESCRIPTION:;
#CHARTSTYLE:;
#DIFFICULTY:Hard;
#METER:10;
#RADARVALUES:0.341140,0.489251,0.000000,0.093909,0.147572,356.000000,356.000000,0.000000,14.000000,0.000000,0.000000,0.000000,0.000000,0.000000,0.341140,0.489251,0.000000,0.093909,0.147572,356.000000,356.000000,0.000000,14.000000,0.000000,0.000000,0.000000,0.000000,0.000000;
#CREDIT:;
#NOTES:
// measure 0
0000
0000
0000
0000
,  // measure 1
0000
0000
0000
0000
,  // measure 2
0010
0010
0100
0001
0100
0001
0100
0100
,  // measure 3
0020
0000
0000
0030
,  // measure 4
0010
0100
0010
0001
0100
0001
0100
1000
,  // measure 5
0020
0000
0000
0030
,  // measure 6
0001
0100
0010
0001
1000
0001
0100
0010
,  // measure 7
0200
0000
0000
0300
,  // measure 8
0010
0001
0100
0010
0001
1000
0001
0100
,  // measure 9
0020
0000
0000
0030
,  // measure 10
0010
0001
0100
0010
0001
0100
0001
0100
,  // measure 11
2000
0000
0000
3000
,  // measure 12
0001
0100
0010
0001
1000
0001
0100
0010
,  // measure 13
0200
0000
0000
0300
,  // measure 14
0001
0100
0010
0100
0010
0001
1000
0001
,  // measure 15
0100
0000
0000
0001
0000
0100
0000
0020
,  // measure 16
0000
0000
0000
0000
0000
0030
0100
0001
,  // measure 17
1000
0000
0000
0000
0100
0000
0000
0000
0010
0000
0000
0001
0000
0000
0100
0000
,  // measure 18
0001
0100
0010
0001
1000
0001
0100
0010
,  // measure 19
0001
0000
0000
0000
0100
0000
0000
0000
0010
0000
0000
0001
0000
0000
0100
0000
,  // measure 20
0000
0000
0010
0000
0100
0010
0000
0100
0000
0000
0001
0000
0100
0000
0010
0000
,  // measure 21
0001
0000
0000
0000
0100
0000
0000
0000
0010
0000
0000
0001
0000
0000
0100
0000
,  // measure 22
0100
0010
0001
0100
0001
0100
0001
0100
,  // measure 23
1000
0000
0000
0000
0010
0000
0000
0000
0001
0000
0000
0100
0000
0000
0010
0000
,  // measure 24
0100
0010
0001
0100
0001
0100
0001
0100
,  // measure 25
1000
0000
0000
0100
0000
0000
0000
0000
0000
0000
0000
0000
0000
0000
0000
0000
,  // measure 26
0010
0001
0100
0010
0001
0100
0001
0100
,  // measure 27
1000
0000
0000
0010
0000
0100
0000
0001
,  // measure 28
0100
0010
0100
0010
0001
0100
0001
0100
,  // measure 29
1000
0000
0000
0001
0000
0000
0000
0000
0000
0000
0000
0000
0000
0000
0000
0000
,  // measure 30
0010
0100
0010
0001
1000
0001
0100
0010
,  // measure 31
0001
0000
0000
0100
0000
0010
0000
0200
,  // measure 32
0000
0000
0000
0000
0000
0000
0000
0000
0000
0000
0300
0000
0010
0100
0001
0000
,  // measure 33
0100
0000
0010
0000
0100
0001
1000
0000
0100
0000
0001
0000
0010
0001
0100
0000
,  // measure 34
0010
0000
0001
1000
0100
0000
0010
0100
0000
0000
0000
0000
0010
0100
0001
0000
,  // measure 35
0100
0000
0010
0000
1000
0001
0100
0000
0100
0000
0010
0000
0001
0100
1000
0000
,  // measure 36
0001
0000
0100
0010
0000
0100
0001
0000
0000
0000
0000
0000
0100
0010
0001
0000
,  // measure 37
0100
0000
0010
0100
0000
0010
0100
0000
0000
0000
0000
0000
0010
0001
0100
0000
,  // measure 38
1000
0000
0001
0100
0000
0010
0100
0000
0000
0000
0000
0000
0100
0000
0010
0000
,  // measure 39
0001
0100
0000
0001
0000
0100
0000
0010
,  // measure 40
0000
0001
0000
0100
0000
0000
0100
0010
,  // measure 41
0001
0000
0000
0000
0100
0000
0000
0000
0010
0000
0000
0001
0000
0000
0100
0000
,  // measure 42
0010
0100
0010
0100
0010
0100
0010
0100
,  // measure 43
1000
0000
0000
0000
0100
0000
0000
0000
0010
0000
0000
0001
0000
0000
1000
0000
,  // measure 44
0000
0000
0100
0000
0001
0010
0000
0100
0000
0000
0010
0000
0001
0000
0100
0000
,  // measure 45
1000
0000
0000
0000
0100
0000
0000
0000
0010
0000
0000
0001
0000
0000
1000
0000
,  // measure 46
0010
0100
0010
0100
0010
0100
0010
0100
,  // measure 47
0010
0000
0000
0000
0010
0000
0000
0000
0100
0000
0000
0010
0000
0000
0001
0000
,  // measure 48
0010
0001
0100
0010
0001
0100
0001
0100
,  // measure 49
1000
0000
0000
0200
0000
0000
0000
0000
0000
0000
0000
0000
0000
0000
0000
0000
,  // measure 50
0000
0000
0000
0000
0000
0000
0000
0000
0000
0300
0000
0000
0100
0000
0010
0000
,  // measure 51
0001
0000
0000
0200
0000
0000
0000
0000
0000
0000
0000
0000
0000
0000
0000
0000
,  // measure 52
0000
0000
0000
0000
0000
0000
0300
0000
0000
0000
1000
0000
0100
0001
0010
0000
,  // measure 53
0100
0000
0000
0002
0000
0000
0000
0000
0000
0000
0000
0000
0000
0000
0000
0000
,  // measure 54
0000
0000
0000
0003
0000
0000
0001
1000
,  // measure 55
0100
0000
0000
0020
0000
0000
0000
0000
0000
0000
0000
0000
0000
0000
0000
0000
,  // measure 56
0000
0000
0000
0000
0000
0030
0100
0001
,  // measure 57
0010
0000
0000
0000
0010
0000
0000
0000
0001
0000
0000
0100
0000
0000
1000
0000
,  // measure 58
0010
0001
0100
0010
0001
0100
0001
0100
,  // measure 59
1000
0000
0000
0000
0100
0000
0000
0000
0010
0000
0000
0001
0000
0000
1000
0000
,  // measure 60
0000
0000
0100
0000
0001
1000
0000
0100
0000
0000
0001
0000
0010
0000
0100
0000
,  // measure 61
0001
0000
0000
0000
1000
0000
0000
0000
0100
0000
0000
0010
0000
0000
0100
0000
,  // measure 62
0001
0100
0010
0001
0100
0001
0100
1000
,  // measure 63
0001
0000
0000
0000
0100
0000
0000
0000
0010
0000
0000
0001
0000
0000
0100
0000
,  // measure 64
0010
0100
0010
0001
0100
0001
0100
1000
,  // measure 65
0010
0100
0000
0100
,  // measure 66
0000
0010
0000
0010
,  // measure 67
0001
0000
0000
0200
0000
0000
0000
0000
0000
0000
0000
0000
0000
0000
0000
0000
,  // measure 68
0000
0000
0000
0300
,  // measure 69
0000
0001
0000
0100
,  // measure 70
0000
0000
1000
0000
0000
0000
0001
0100
,  // measure 71
1000
0000
0000
0002
0000
0000
0000
0000
0000
0000
0000
0000
0003
0000
0000
0000
,  // measure 72
0000
0000
0000
0000
0010
0000
0000
0000
0000
0000
0000
0000
0100
0000
0000
0001
;
