#VERSION:0.83;
#TITLE:miss my choppa;
#SUBTITLE:;
#ARTIST:Rocket Rese;
#TITLETRANSLIT:;
#SUBTITLETRANSLIT:;
#ARTISTTRANSLIT:;
#GENRE:;
#ORIGIN:;
#CREDIT:;
#BANNER:;
#BACKGROUND:;
#PREVIEWVID:;
#JACKET:;
#CDIMAGE:;
#DISCIMAGE:;
#LYRICSPATH:;
#CDTITLE:;
#MUSIC:ROCKET RESE - MISS MY CHOPPA (OFFICIAL MUSIC VIDEO).ogg;
#OFFSET:0.000000;
#SAMPLESTART:0.059886;
#SAMPLELENGTH:12.000000;
#SELECTABLE:YES;
#BPMS:0.000=150.000;
#STOPS:0.000=0.100;
#DELAYS:;
#WARPS:;
#TIMESIGNATURES:0.000=4=4;
#TICKCOUNTS:0.000=4;
#COMBOS:0.000=1;
#SPEEDS:0.000=1.000=0.000=0;
#SCROLLS:0.000=1.000;
#FAKES:;
#LABELS:0.000=Song Start;
#BGCHANGES:0.000=ROCKET RESE - MISS MY CHOPPA (OFFICIAL MUSIC VIDEO).mp4=1.000=0=0=1=====,
99999=-nosongbg-=1.000=0=0=0 // don't automatically add -songbackground-
;
#KEYSOUNDS:;
#ATTACKS:
;

//---------------dance-single - ----------------
#NOTEDATA:;
#CHARTNAME:;
#STEPSTYPE:dance-single;
#DESCRIPTION:;
#CHARTSTYLE:;
#DIFFICULTY:Hard;
#METER:12;
#RADARVALUES:0.568475,0.634936,0.711987,0.000000,0.321857,408.000000,335.000000,73.000000,0.000000,0.000000,0.000000,0.000000,0.000000,0.000000,0.568475,0.634936,0.711987,0.000000,0.321857,408.000000,335.000000,73.000000,0.000000,0.000000,0.000000,0.000000,0.000000,0.000000;
#CREDIT:;
#NOTES:
// measure 0
0000
0000
0000
0000
,  // measure 1
0000
0000
0000
0000
,  // measure 2
0000
0000
0000
0000
,  // measure 3
0000
0000
0000
0000
,  // measure 4
0110
0110
1100
0110
,  // measure 5
0110
0110
0101
1001
,  // measure 6
0110
0000
0110
0010
0101
0010
1001
0000
,  // measure 7
0011
0101
0101
0110
,  // measure 8
0000
0000
0000
0000
0000
0000
0001
0100
,  // measure 9
1000
0000
0001
0100
0001
1000
0100
0000
,  // measure 10
0000
0000
0110
0000
0110
0000
0001
0100
,  // measure 11
0010
0000
0001
1000
0001
0100
1000
0000
,  // measure 12
0101
0000
0101
0000
0101
0000
0001
0100
,  // measure 13
0010
0000
0001
1000
0001
0100
1000
0000
,  // measure 14
0110
0000
0110
0000
0110
0000
0001
0100
,  // measure 15
1000
0000
0001
1000
0001
0100
1000
0000
,  // measure 16
0101
0000
0000
0000
0101
0000
0000
0000
0101
0000
0000
0000
0101
0000
0000
0010
,  // measure 17
0100
0000
0000
0000
0000
0000
0000
0000
0110
0000
0000
0000
0000
0000
0010
0100
0001
0000
0000
0000
0000
0000
0010
0001
0100
0000
0000
0000
0001
0000
1000
0000
,  // measure 18
0100
0000
0000
0000
0101
0000
0000
0000
0101
0000
0000
0000
1001
0000
0000
0010
,  // measure 19
0100
0000
0000
0000
0000
0000
0000
0000
0101
0000
0000
0000
0000
0000
0010
0100
0001
0000
0000
0000
0000
0000
0000
0010
0100
0000
0000
0000
0100
0000
0001
0000
,  // measure 20
0010
0000
0000
0000
0101
0000
0000
0000
0101
0000
0000
0000
0110
0000
0000
0001
,  // measure 21
0100
0000
0000
0000
0000
0000
0000
0000
0110
0000
0000
0000
0000
0000
0010
0001
0010
0000
0000
0000
0000
0000
0100
0010
0100
0000
0000
0000
0010
0000
0001
0000
,  // measure 22
0100
0000
0000
0000
0101
0000
0000
0000
0110
0000
0000
0000
1001
0000
0000
0010
,  // measure 23
0100
0000
0000
0000
0000
0000
0000
0000
0101
0000
0000
0000
0000
0000
0010
0100
0001
0000
0000
0000
0000
0000
0010
0100
0001
0000
0000
0000
1000
0000
0100
0000
,  // measure 24
0001
0000
0000
0000
0101
0000
0000
0000
0101
0000
0000
0000
1001
0000
0000
0001
,  // measure 25
0100
0000
0000
0000
0000
0000
0000
0000
0110
0000
0000
0000
0000
0000
0010
0100
0001
0000
0000
0000
0000
0000
0100
0001
1000
0000
0000
0000
0100
0000
0001
0000
,  // measure 26
0010
0000
0000
0000
0101
0000
0000
0000
0110
0000
0000
0000
1001
0000
0000
0100
,  // measure 27
0010
0000
0000
0000
0000
0000
0000
0101
0000
0000
0000
0000
0000
0000
0010
0100
0001
0000
0000
0000
0000
0000
1000
0100
0001
0000
0000
0000
0000
0000
0010
0000
,  // measure 28
0100
0000
0000
0000
0101
0000
0000
0000
0101
0000
0000
0000
1001
0000
0000
0010
,  // measure 29
0100
0000
0000
0000
0000
0000
0000
0000
0010
0000
0000
0000
0000
0000
0100
0001
0010
0000
0000
0000
0000
0000
0100
0001
0100
0000
0000
0000
0000
0000
0010
0000
,  // measure 30
0001
0000
0000
0000
0101
0000
0000
0000
0101
0000
0000
0000
1001
0000
0000
0010
,  // measure 31
0100
0000
0000
0000
0000
0000
0000
0000
0010
0000
0000
0000
0000
0000
0001
0010
0100
0000
0000
0000
0000
0000
0010
0100
0001
0000
0000
0000
0001
0000
0010
0000
,  // measure 32
0100
0001
0100
0010
,  // measure 33
0001
0100
0010
0001
,  // measure 34
0100
0001
0100
1000
,  // measure 35
0001
0100
0001
0100
,  // measure 36
0010
0001
0100
0001
,  // measure 37
0100
0010
0001
0100
,  // measure 38
0001
0100
0001
0100
,  // measure 39
1000
0100
0001
0100
,  // measure 40
0100
0000
0010
0001
0100
0000
0010
0000
,  // measure 41
1000
0000
0001
0100
0010
0000
0001
1000
,  // measure 42
0100
0000
0010
0000
0100
0010
0100
0001
,  // measure 43
1000
0000
0100
0010
0001
1000
0001
0100
,  // measure 44
1000
0000
0100
0000
0010
0000
0001
0100
,  // measure 45
1000
0000
0100
0010
0001
0100
0001
1000
,  // measure 46
0100
0000
0010
0000
0001
1000
0001
0100
,  // measure 47
1000
0100
0001
0100
,  // measure 48
0000
0000
0010
0000
0000
0000
0100
0001
,  // measure 49
1000
0000
0001
0100
0001
1000
0100
0000
,  // measure 50
0000
0000
0101
0000
0000
0000
0100
0001
,  // measure 51
0100
0000
0001
0100
0001
0100
1000
0000
,  // measure 52
0000
0000
0101
0000
0000
0000
0001
0100
,  // measure 53
1000
0000
0001
0100
0001
0100
1000
0000
,  // measure 54
0000
0000
1001
0000
0000
0000
1001
0010
,  // measure 55
0100
0000
0010
0001
1000
0001
0110
0000
,  // measure 56
1001
0000
0000
0000
0101
0000
0000
0000
0110
0000
0000
0000
1001
0000
0000
0010
,  // measure 57
0100
0000
0000
0000
0000
0000
0000
0000
0110
0000
0000
0000
0000
0000
0001
0010
0100
0000
0000
0000
0000
0000
0001
0010
0100
0000
0000
0000
0001
0000
1000
0000
,  // measure 58
0100
0000
0000
0000
0101
0000
0000
0000
0101
0000
0000
0000
0101
0000
0000
1000
,  // measure 59
0100
0000
0000
0000
0000
0000
0000
0000
0110
0000
0000
0000
0000
0000
0010
0100
0001
0000
0000
0000
0000
0000
1000
0100
0001
0000
0000
0000
0010
0000
0100
0000
,  // measure 60
0001
0000
0000
0000
0110
0000
0000
0000
0110
0000
0000
0000
1001
0000
0000
0010
,  // measure 61
0100
0000
0000
0000
0000
0000
0000
0000
0101
0000
0000
0000
0000
0000
0100
0001
0010
0000
0000
0000
0000
0000
0001
0100
0010
0000
0000
0000
1000
0000
0100
0000
,  // measure 62
0001
0000
0000
0000
;
