#VERSION:0.83;
#TITLE:misery;
#SUBTITLE:;
#ARTIST:Pupsies;
#TITLETRANSLIT:;
#SUBTITLETRANSLIT:;
#ARTISTTRANSLIT:;
#GENRE:;
#ORIGIN:;
#CREDIT:;
#BANNER:;
#BACKGROUND:;
#PREVIEWVID:;
#JACKET:;
#CDIMAGE:;
#DISCIMAGE:;
#LYRICSPATH:;
#CDTITLE:;
#MUSIC:misery..ogg;
#OFFSET:0.000000;
#SAMPLESTART:100.059883;
#SAMPLELENGTH:12.000000;
#SELECTABLE:YES;
#BPMS:0.000=119.000,
96.000=236.000,
160.000=119.000,
192.000=236.000,
256.000=119.000,
304.000=121.000,
308.000=119.000,
320.000=116.000,
336.000=119.000;
#STOPS:;
#DELAYS:;
#WARPS:;
#TIMESIGNATURES:0.000=4=4;
#TICKCOUNTS:0.000=4;
#COMBOS:0.000=1;
#SPEEDS:0.000=1.000=0.000=0;
#SCROLLS:0.000=1.000;
#FAKES:;
#LABELS:0.000=Song Start;
#BGCHANGES:;
#KEYSOUNDS:;
#ATTACKS:
;

//---------------dance-single - ----------------
#NOTEDATA:;
#CHARTNAME:;
#STEPSTYPE:dance-single;
#DESCRIPTION:;
#CHARTSTYLE:;
#DIFFICULTY:Hard;
#METER:13;
#RADARVALUES:0.620417,0.697389,0.108122,0.042048,0.021024,723.000000,705.000000,18.000000,7.000000,0.000000,0.000000,0.000000,0.000000,0.000000,0.620417,0.697389,0.108122,0.042048,0.021024,723.000000,705.000000,18.000000,7.000000,0.000000,0.000000,0.000000,0.000000,0.000000;
#CREDIT:;
#NOTES:
// measure 0
0000
0000
0000
0000
,  // measure 1
0000
0000
0000
0000
,  // measure 2
0000
0000
0000
0000
,  // measure 3
0000
0000
0000
0000
0000
0000
0000
0100
,  // measure 4
0010
0100
0010
0001
0100
0001
0100
0010
,  // measure 5
0001
0100
0001
0100
1000
0100
0010
0001
,  // measure 6
0100
0001
0100
0010
0001
0100
0001
0100
,  // measure 7
0010
0001
0100
0001
0100
1000
0000
0010
,  // measure 8
0001
0100
0001
0100
0010
0001
0100
0001
,  // measure 9
0100
0010
0001
0100
0001
0100
0010
0001
,  // measure 10
0100
0001
0100
1000
0100
0010
0001
0100
,  // measure 11
0001
0100
0010
0001
0100
0001
0100
0010
,  // measure 12
0001
0100
0001
1000
0100
0010
0100
0001
,  // measure 13
1000
0001
0010
0100
0001
0100
0001
0010
,  // measure 14
0100
0001
0100
0010
0100
0010
0001
1000
,  // measure 15
0001
0100
0010
0001
0100
0001
0100
0010
,  // measure 16
0010
0100
0010
0001
0100
0001
0100
0010
,  // measure 17
0001
0100
0001
0100
1000
0000
0100
0010
,  // measure 18
0100
0001
1000
0001
0010
0001
0100
0001
,  // measure 19
0100
0010
0001
0100
0001
0000
0010
0001
,  // measure 20
1000
0001
0100
0001
0010
0001
0100
0010
,  // measure 21
0001
0100
0001
0100
1000
0000
0001
0100
,  // measure 22
0001
0100
0010
0001
1000
0001
0100
0010
,  // measure 23
0001
0100
0001
0100
2000
0000
3000
0000
,  // measure 24
0010
0001
1000
0001
0100
0001
0100
0010
,  // measure 25
0001
0100
0001
0100
0010
0001
0100
0001
,  // measure 26
0100
0010
0001
0100
0001
0100
0010
0001
,  // measure 27
0100
0001
0100
0010
0001
0100
0001
0100
,  // measure 28
1000
0100
0010
0100
0001
0100
1000
0100
,  // measure 29
0010
0001
0100
0001
0100
0010
0001
1000
,  // measure 30
0001
0100
0010
0001
0100
0001
0100
0010
,  // measure 31
0100
0010
0001
0100
0001
0100
0010
0001
,  // measure 32
1000
0001
0100
0010
0001
0100
0001
0100
,  // measure 33
0010
0001
1000
0001
0100
0010
0001
0100
,  // measure 34
0001
0100
0010
0001
1000
0001
0100
0010
,  // measure 35
0001
1000
0001
0000
0010
0001
0100
0010
,  // measure 36
0010
0100
0010
0001
0100
0001
0100
0010
,  // measure 37
0001
1000
0001
0100
0010
0001
0100
0001
,  // measure 38
0100
0001
0100
0010
0100
0001
1000
0001
,  // measure 39
0100
0010
0001
0100
0001
0100
1000
0000
,  // measure 40
1001
1001
0010
0001
0100
0001
0100
0010
,  // measure 41
1001
1001
0010
0001
0100
0001
0100
0010
,  // measure 42
1001
1001
0010
0001
1000
0001
0100
0010
,  // measure 43
0101
0101
0001
0100
0010
1000
0100
0001
,  // measure 44
1001
1001
0010
0001
0100
0001
0100
0010
,  // measure 45
1001
1001
0010
0100
0101
0101
0010
0100
,  // measure 46
1001
1001
0010
0001
1000
0001
0100
0010
,  // measure 47
1001
1001
0100
0010
0010
0001
0100
0001
,  // measure 48
1000
0100
0001
0100
0001
0010
0100
0001
,  // measure 49
1000
0001
0010
0100
0001
0100
0001
0010
,  // measure 50
0100
0001
1000
0001
0010
0100
0001
0100
,  // measure 51
0001
0010
0100
0010
0001
1000
0001
0100
,  // measure 52
0010
0001
0100
0001
0010
0100
1000
0010
,  // measure 53
0100
0010
0100
0010
0001
0100
0001
0100
,  // measure 54
0010
0001
0100
0001
0100
1000
0100
0010
,  // measure 55
0100
0001
0100
0010
0001
1000
0001
0100
,  // measure 56
0010
0001
0100
0001
0100
0010
0001
0100
,  // measure 57
0001
0100
1000
0100
0010
0001
0100
0001
,  // measure 58
0100
0010
0001
0100
0001
0100
0010
0100
,  // measure 59
0001
0100
1000
0100
0001
0100
0001
0010
,  // measure 60
0100
0001
0100
0010
0001
0100
0001
0100
,  // measure 61
0010
0001
0100
0001
0100
0010
0001
1000
,  // measure 62
0001
0100
0010
0001
0100
0001
0100
0010
,  // measure 63
0001
0100
0001
0100
0010
0010
0001
0010
,  // measure 64
1000
0001
0010
0010
0100
0010
0001
0100
,  // measure 65
0001
0100
0010
0001
0010
0100
1000
0100
,  // measure 66
0010
0100
0001
0100
1000
0100
0010
0100
,  // measure 67
0001
0100
0010
0001
0100
0001
0100
0010
,  // measure 68
0001
0100
1000
0100
0010
0001
0100
0001
,  // measure 69
0100
0010
0001
0100
0001
0100
0010
0001
,  // measure 70
1000
0001
0100
0010
0001
0100
0000
0010
,  // measure 71
0001
1000
0001
0100
0010
0100
0001
0010
,  // measure 72
0100
0000
0010
0001
0000
0100
0000
0010
,  // measure 73
0001
0000
0100
0010
0000
0100
0010
0100
,  // measure 74
0001
0000
0010
0100
0000
0020
0000
0030
,  // measure 75
0100
0000
0001
0100
0001
0100
0001
0100
,  // measure 76
1000
0000
0100
0010
0000
0200
0000
0000
,  // measure 77
0000
0000
0300
0000
0010
0000
0100
0000
0001
0000
0000
1000
0100
0000
0000
0000
,  // measure 78
0000
0010
0001
0100
0000
0010
0100
0001
,  // measure 79
0000
0000
0100
0000
0010
0000
0000
0100
0002
0000
0000
0000
0003
0000
0010
0000
,  // measure 80
0100
0001
1000
0001
0010
0100
0001
0100
,  // measure 81
0100
0000
0010
0000
0001
0000
0010
0000
0100
0000
1000
0001
0010
0000
0100
0000
,  // measure 82
0001
0010
0100
0010
0001
0100
0001
0100
,  // measure 83
0001
0010
0001
0100
0010
0001
0100
0001
,  // measure 84
0100
0010
0001
0100
0001
0100
1000
0010
,  // measure 85
0001
0000
0100
0000
0001
0000
0100
0000
0010
0000
0100
0000
0010
0000
0001
0100
,  // measure 86
1000
0001
0100
0010
0002
0000
0200
0000
,  // measure 87
0000
0000
0303
0001
0100
0010
0001
1000
,  // measure 88
0001
0100
0010
0100
0010
0100
0001
0100
,  // measure 89
1000
0010
0100
0001
0100
0010
0100
0001
,  // measure 90
1000
0100
0010
0100
0010
0001
1000
0001
,  // measure 91
0100
0000
0001
0000
0100
0000
0010
0001
0100
0000
0010
0000
0001
0000
0100
0000
,  // measure 92
1000
0010
0001
0100
0001
0100
0010
0001
,  // measure 93
1000
0000
0001
0000
0100
0000
0010
0001
0100
0000
0010
0000
0100
0000
0001
0000
,  // measure 94
1000
0010
0001
0100
0001
0100
0010
0001
,  // measure 95
1000
0000
0001
0000
0100
0000
0010
0001
0100
0000
0001
0000
0100
0000
0020
0000
,  // measure 96
0000
0000
0000
0030
;
