#TITLE:miracle;
#SUBTITLE:;
#ARTIST:CeCe Natalie;
#TITLETRANSLIT:;
#SUBTITLETRANSLIT:;
#ARTISTTRANSLIT:;
#GENRE:;
#CREDIT:;
#BANNER:;
#BACKGROUND:;
#LYRICSPATH:;
#CDTITLE:;
#MUSIC:Miracle.ogg;
#OFFSET:0.000000;
#SAMPLESTART:100.059883;
#SAMPLELENGTH:12.000000;
#SELECTABLE:YES;
#BPMS:0.000000=96.000000
,240.000000=94.000000
,256.000000=96.000000
;
#STOPS:0.000000=0.050000
;
#BGCHANGES:;
#KEYSOUNDS:;
#ATTACKS:;

//---------------dance-single - ----------------
#NOTES:
     dance-single:
     :
     Hard:
     14:
     0.642931,0.641081,0.000000,0.000000,0.825635,834.000000,834.000000,0.000000,0.000000,0.000000,0.000000,0.642931,0.641081,0.000000,0.000000,0.825635,834.000000,834.000000,0.000000,0.000000,0.000000,0.000000:
// measure 0
0000
0000
0000
0000
,  // measure 1
0000
0000
0000
0000
,  // measure 2
0000
0000
0000
0000
,  // measure 3
0000
0000
0000
0000
,  // measure 4
1000
0000
0001
0100
0010
0000
0100
0000
0001
0000
1000
0000
0001
0000
0010
0000
,  // measure 5
0100
0010
0001
0100
0001
0100
0001
0100
,  // measure 6
1000
0001
0100
0100
0010
0001
1000
0001
,  // measure 7
0100
0010
0001
1000
0001
0100
0001
0100
,  // measure 8
1000
0000
0100
0001
0010
0000
0001
0000
0100
0000
0001
0100
0001
0000
0100
0000
,  // measure 9
0010
0000
0001
0100
1000
0000
0010
0000
0001
0000
0100
0010
0001
0010
0100
0000
,  // measure 10
1000
0000
0001
0100
0001
0000
0100
0000
0010
0000
0001
0100
1000
0010
0100
0000
,  // measure 11
1000
0000
0001
0100
0001
0010
1000
0000
0100
0000
0001
0100
0010
0001
0010
0000
,  // measure 12
0100
0000
0010
0000
0100
0001
0100
0000
0100
0000
0010
0000
0001
0100
1000
0000
,  // measure 13
0000
0001
0100
0000
0010
0000
0100
0001
1000
0000
0100
0001
0010
0000
0100
0000
,  // measure 14
0001
1000
0001
0100
1000
0000
0010
0100
0001
0000
1000
0000
0100
0010
0001
0100
,  // measure 15
0001
0100
0001
1000
0000
0010
0000
0001
1000
0100
0001
0100
0000
0000
0000
0000
,  // measure 16
0010
0000
1000
0001
0100
0000
0100
0000
0010
0000
0001
1000
0100
0000
0100
0000
,  // measure 17
0010
0000
0001
0100
1000
0000
0100
0000
0010
0000
0100
0001
0100
0010
1000
0000
,  // measure 18
0100
0000
0001
0100
0001
0010
0100
0000
0010
0000
0001
1000
0100
0010
0100
0000
,  // measure 19
0010
0000
0001
0100
0001
0010
0100
0000
0010
0000
0001
0100
0001
1000
0100
0000
,  // measure 20
0010
0000
1000
0001
0100
0001
0100
0000
0010
0000
0001
0100
0001
1000
0100
0000
,  // measure 21
0010
0000
1000
0001
0100
0010
0100
0000
0010
0000
0001
0100
0001
1000
0100
0000
,  // measure 22
0010
0000
0001
0100
0001
0010
0100
0000
0010
0000
0001
0100
0001
1000
0100
0000
,  // measure 23
0100
0000
0001
0100
0001
0010
0100
0000
0010
0000
0001
0100
0001
1000
0100
0000
,  // measure 24
0000
0000
0000
0000
0000
0000
0001
1000
0001
0100
0001
0100
0001
1000
0100
0010
,  // measure 25
0100
0001
1000
0001
0100
0001
1000
0010
0100
0010
0001
0100
0001
1000
0001
0010
,  // measure 26
0100
0010
0001
1000
0001
0100
1000
0000
0100
0010
0001
1000
0100
0010
0001
0100
,  // measure 27
0001
0010
0100
0001
1000
0001
0010
0100
0001
0100
0010
0100
0001
0100
0010
0001
,  // measure 28
1000
0001
0100
0010
0001
1000
0001
0100
1000
0001
0100
0010
0001
0100
0001
1000
,  // measure 29
0100
0000
0000
0000
0001
0100
0001
0100
0001
0100
0001
0100
0001
1000
0001
0100
,  // measure 30
1000
0001
0100
0001
0100
0001
0100
0010
0001
0100
0001
0100
0001
0100
0001
1000
,  // measure 31
0100
0100
0010
0001
1000
0001
0100
0001
0100
0001
0100
0010
0001
1000
0001
0100
,  // measure 32
1000
0000
0100
0001
0010
0000
0100
0000
0010
0000
0001
0100
0001
1000
0100
0000
,  // measure 33
0010
0000
0001
1000
0001
0100
1000
0000
0010
0000
0001
0100
0001
1000
0100
0000
,  // measure 34
0010
0000
0001
0100
0001
0010
0100
0000
0001
0000
0010
0100
0001
1000
0001
0000
,  // measure 35
0010
0000
0001
0100
0001
0100
1000
0000
0010
0000
0001
1000
0001
0100
1000
0000
,  // measure 36
0000
0000
0000
0000
0100
0000
0001
1000
0100
0001
0010
0000
0001
0000
0100
0000
,  // measure 37
1000
0010
0100
0000
0001
0000
0100
0000
0010
0001
0100
0001
1000
0001
0100
0000
,  // measure 38
0010
0000
0100
0001
1000
0100
0001
0000
0100
0000
0001
0000
0010
0000
0100
0000
,  // measure 39
0001
0000
1000
0000
0001
0010
0100
0000
0010
0000
0001
0100
1000
0010
0100
0000
,  // measure 40
1000
0000
0100
0001
0100
0010
0100
0001
1000
0001
0010
0100
0001
1000
0001
0010
,  // measure 41
0100
0010
0001
0100
0010
0001
1000
0001
0100
0010
0100
0100
0001
1000
0000
0000
,  // measure 42
0100
0001
0100
0010
0001
1000
0001
0100
0010
0001
1000
0001
0100
0001
1000
0100
,  // measure 43
0100
0010
0001
0100
0010
0001
1000
0001
0100
0010
0001
1000
0001
0100
0001
0000
,  // measure 44
0010
0000
1000
0001
0100
0000
0001
0000
0010
0000
0001
0100
0001
1000
0100
0000
,  // measure 45
0100
0000
0010
0001
0100
0001
0100
0000
1000
0000
0001
1000
0001
0100
1000
0000
,  // measure 46
0010
0000
0001
1000
0001
0100
1000
0000
0100
0000
0001
1000
0001
0100
1000
0000
,  // measure 47
0010
0000
0001
1000
0001
0100
1000
0000
0010
0000
0001
1000
0001
0100
1000
0000
,  // measure 48
0010
0000
0001
0100
0001
1000
0100
0000
0010
0000
0001
1000
0001
0100
1000
0000
,  // measure 49
0010
0000
0001
0100
0001
1000
0100
0000
0010
0000
0001
1000
0001
0100
1000
0000
,  // measure 50
0010
0000
0001
0100
0001
1000
0100
0000
0010
0000
0001
1000
0001
0100
1000
0000
,  // measure 51
0010
0000
0001
1000
0001
0100
1000
0000
0010
0000
0001
1000
0001
0100
1000
0000
,  // measure 52
0100
0000
0010
0001
0100
0010
0001
1000
0001
0100
0010
0001
1000
0001
0100
1000
,  // measure 53
0001
0100
0010
0001
0100
0010
0001
1000
0001
0100
0001
0100
0001
0100
0010
0001
,  // measure 54
0100
0001
0100
0010
0001
1000
0001
0100
0010
0001
0100
0001
0100
0010
0001
1000
,  // measure 55
0001
0100
0010
0001
0100
0001
0100
0010
0001
1000
0001
0100
0010
0001
1000
0001
,  // measure 56
0100
0010
0001
0100
0001
0100
0010
0001
1000
0001
0100
0010
0001
1000
0001
0100
,  // measure 57
1000
0000
0001
0100
0010
0001
1000
0001
0100
0010
0001
1000
0001
0100
1000
0001
,  // measure 58
0100
0001
0100
0010
0001
0100
0001
0100
0010
0001
1000
0001
0100
0010
0001
1000
,  // measure 59
0001
0100
0010
0001
0100
0001
0100
0010
0001
1000
0001
0100
0010
0001
1000
0001
,  // measure 60
0100
0000
0010
0100
0001
1000
0001
0000
0010
0000
0100
0000
0010
0001
0100
0000
,  // measure 61
0000
0000
1000
0000
0010
0000
0001
0100
0010
0000
0001
0100
0001
1000
0100
0000
,  // measure 62
0100
0000
0001
1000
0100
0001
0100
0000
0100
0000
0001
0000
0010
0100
0001
0000
,  // measure 63
0010
1000
0100
0000
0001
0000
0010
0100
0100
0000
0010
0000
0001
0100
1000
0000
,  // measure 64
0000
0000
0000
0000
0000
0000
0000
0000
0100
0000
0001
1000
0100
0010
0001
0000
,  // measure 65
0100
0000
0010
0100
0001
1000
0001
0000
0010
0000
0001
1000
0001
0100
1000
0000
,  // measure 66
0010
0000
0100
0001
1000
0001
0010
0000
0010
0000
0001
1000
0001
0100
1000
0000
,  // measure 67
0100
0000
0010
0001
1000
0001
0100
0000
0010
0000
0001
1000
0001
0100
1000
0000
,  // measure 68
0100
0000
0010
0001
1000
0001
0100
0000
0010
0000
0001
0100
0001
1000
0100
0000
,  // measure 69
0010
0000
0001
1000
0001
0100
1000
0000
0010
0000
0001
1000
0001
0100
1000
0000
,  // measure 70
0010
0000
0001
1000
0001
0100
1000
0000
0010
0000
0001
1000
0001
0100
1000
0000
,  // measure 71
0100
0000
0010
0001
1000
0001
0100
0000
0010
0000
0001
1000
0001
0100
1000
0000
,  // measure 72
0100
0000
0000
0000
;
