#VERSION:0.83;
#TITLE:midnight sun;
#SUBTITLE:;
#ARTIST:Zara Larson;
#TITLETRANSLIT:;
#SUBTITLETRANSLIT:;
#ARTISTTRANSLIT:;
#GENRE:;
#ORIGIN:;
#CREDIT:;
#BANNER:;
#BACKGROUND:;
#PREVIEWVID:;
#JACKET:;
#CDIMAGE:;
#DISCIMAGE:;
#LYRICSPATH:;
#CDTITLE:;
#MUSIC:Zara Larsson - Midnight Sun (Official Music Video).ogg;
#OFFSET:0.000000;
#SAMPLESTART:100.059883;
#SAMPLELENGTH:12.000000;
#SELECTABLE:YES;
#BPMS:0.000=151.000;
#STOPS:0.000=0.400;
#DELAYS:;
#WARPS:;
#TIMESIGNATURES:0.000=4=4;
#TICKCOUNTS:0.000=4;
#COMBOS:0.000=1;
#SPEEDS:0.000=1.000=0.000=0;
#SCROLLS:0.000=1.000;
#FAKES:;
#LABELS:0.000=Song Start;
#BGCHANGES:0.000=Zara Larsson - Midnight Sun (Official Music Video).mp4=1.000=0=0=1=====,
99999=-nosongbg-=1.000=0=0=0 // don't automatically add -songbackground-
;
#KEYSOUNDS:;
#ATTACKS:
;

//---------------dance-single - ----------------
#NOTEDATA:;
#CHARTNAME:;
#STEPSTYPE:dance-single;
#DESCRIPTION:;
#CHARTSTYLE:;
#DIFFICULTY:Hard;
#METER:14;
#RADARVALUES:0.592926,0.637058,0.021312,0.047952,0.210455,779.000000,775.000000,4.000000,9.000000,0.000000,0.000000,0.000000,0.000000,0.000000,0.592926,0.637058,0.021312,0.047952,0.210455,779.000000,775.000000,4.000000,9.000000,0.000000,0.000000,0.000000,0.000000,0.000000;
#CREDIT:;
#NOTES:
// measure 0
0000
0000
0000
0000
,  // measure 1
0000
0000
0000
0000
,  // measure 2
0000
0000
0000
0000
,  // measure 3
0000
0000
0000
0000
,  // measure 4
0000
0000
0000
0000
,  // measure 5
0000
0000
0000
0000
,  // measure 6
0000
0000
0000
0000
,  // measure 7
0000
0000
0000
0000
0000
0001
0100
0010
,  // measure 8
1001
0100
0010
0100
0010
1000
0100
0000
,  // measure 9
0010
0001
1000
0001
0100
0010
0001
0100
,  // measure 10
0010
0001
0100
1000
0001
0100
0010
0000
,  // measure 11
0100
0010
0001
0100
0001
0100
1000
0000
,  // measure 12
0010
0000
0001
0000
0100
0000
0010
0100
0001
0000
0100
0000
1000
0000
0000
0000
,  // measure 13
0100
0010
0001
0100
0001
0100
1000
0001
,  // measure 14
0100
0010
0001
0100
0001
0100
1000
0000
,  // measure 15
0010
0001
0100
0010
0001
0100
0001
0100
,  // measure 16
1000
0010
0001
0100
1000
0100
0010
0001
,  // measure 17
0100
0010
0001
0100
0001
0100
1000
0000
,  // measure 18
0100
0010
0001
0100
0010
0001
1000
0001
,  // measure 19
0100
0010
0001
0100
0001
0000
1000
0000
,  // measure 20
0010
0000
0000
0001
0000
0000
1000
0000
0000
0001
0000
0000
0100
0000
0000
0010
0000
0000
0100
0000
0010
0000
0100
0000
,  // measure 21
0001
0000
0010
0001
0100
0000
0010
0000
0001
0000
1000
0010
0001
0000
0100
0000
,  // measure 22
1000
0000
0100
0001
0010
0000
0100
0000
0001
0000
0100
0000
1000
0000
0000
0000
,  // measure 23
0100
0010
0001
1000
0001
0100
1000
0000
,  // measure 24
0100
0010
0001
0100
0001
0100
1000
0000
,  // measure 25
0100
0010
0001
0100
0001
0100
1000
0000
,  // measure 26
0100
0010
0001
0100
0001
0100
1000
0000
,  // measure 27
0100
0010
0001
0100
0001
0100
1000
0000
,  // measure 28
0100
0010
0001
0100
0001
0100
1000
0000
,  // measure 29
0001
0100
0010
0001
0100
0001
0100
0000
,  // measure 30
0100
0010
0001
0100
0001
0100
1000
0000
,  // measure 31
0001
0100
0010
0001
1000
0001
0100
0010
,  // measure 32
0001
1000
0001
0100
,  // measure 33
0010
0001
1000
0100
0001
0000
0100
0000
,  // measure 34
0100
0001
0010
0100
0001
0000
0010
0000
,  // measure 35
0200
0000
0300
0000
0001
0100
1000
0010
,  // measure 36
0001
0100
0001
1000
0100
0000
0010
0000
,  // measure 37
0001
0100
0001
0100
1000
0000
0100
0000
,  // measure 38
0010
0001
0100
0001
0100
0000
1000
0000
,  // measure 39
0200
0000
0000
0000
0300
0000
0100
0001
,  // measure 40
1000
0000
0010
0000
0001
0000
0100
0000
0001
0000
0000
1000
0001
0000
0010
0000
,  // measure 41
0100
0000
0001
0000
0100
0000
0001
0000
1000
0000
0000
0100
0001
0000
0010
0000
,  // measure 42
0100
0000
0001
0000
1000
0000
0100
0000
0001
0000
0000
0010
0100
0000
0001
0000
,  // measure 43
0100
0000
0000
0000
0010
0000
0000
0000
0001
0000
0100
0010
0001
0000
0100
0000
,  // measure 44
1000
0001
0100
0010
0001
1000
0001
0100
,  // measure 45
0010
0001
0100
0001
0100
0001
1000
0100
,  // measure 46
0220
0000
0000
0000
,  // measure 47
0000
0000
0000
0330
,  // measure 48
0010
0000
0100
0000
0001
0000
1000
0000
0100
0000
0001
0010
0000
0100
0001
0000
,  // measure 49
0010
0000
0001
0000
0100
0000
0010
0000
1000
0000
0100
0001
0000
0010
0100
0000
,  // measure 50
0010
0000
0001
0000
0100
0000
0001
0000
0100
0000
0010
0001
0000
1000
0100
0000
,  // measure 51
0001
0000
0100
0000
0010
0000
0001
0000
0100
0000
0010
0001
0000
1000
0100
0000
,  // measure 52
0010
0000
0100
0000
0001
0000
0010
0000
0100
0000
0001
0010
0000
1000
0100
0000
,  // measure 53
0001
0000
1000
0000
0001
0000
0100
0000
0010
0000
1000
0100
0000
0001
0010
0000
,  // measure 54
0010
0000
0100
0000
1000
0000
0001
0000
0100
0000
0010
0001
0000
0100
0010
0000
,  // measure 55
0100
0000
0001
0000
0100
0000
1000
0000
0001
0000
0010
0100
0000
0001
0100
0000
,  // measure 56
0002
0000
0000
0003
,  // measure 57
0100
0001
1000
0000
0000
0000
0001
0100
0010
0000
0000
0000
0100
0001
1000
0000
,  // measure 58
0100
0010
0001
1000
0001
0100
1000
0000
,  // measure 59
0100
0010
0001
0100
0001
0100
0010
0001
,  // measure 60
1000
0001
0100
0010
1000
0100
0001
0100
,  // measure 61
0010
0100
0010
0100
0001
0100
1000
0001
,  // measure 62
0100
0010
0001
0100
0001
0100
1000
0000
,  // measure 63
0001
1000
0001
0100
0010
0100
0001
0100
,  // measure 64
0010
0100
0001
0100
0001
0010
0100
0001
,  // measure 65
1000
0001
0100
0010
0001
0100
0001
0100
,  // measure 66
1000
0010
0001
0100
0001
0100
1000
0000
,  // measure 67
0100
0010
0001
0100
0001
0100
1000
0000
,  // measure 68
0100
0010
0001
0100
0001
0100
1000
0000
,  // measure 69
0010
0100
0001
0100
0001
0000
2000
0000
,  // measure 70
3000
0000
0000
0000
0000
0000
0001
0000
0000
0100
0000
0000
0001
0000
0000
0100
0000
0000
1000
0000
0100
0000
0001
0000
,  // measure 71
0010
0000
0100
0001
0010
0000
0100
0000
0001
0000
0100
0010
1000
0000
0100
0000
,  // measure 72
0001
0000
0001
1000
0100
0000
0010
0000
0100
0000
0001
0000
1000
0000
0000
0000
,  // measure 73
0100
0010
0001
0100
0001
0100
1000
0000
,  // measure 74
0100
0010
0001
0100
0001
0100
1000
0000
,  // measure 75
0001
0100
0001
0100
0010
0100
1000
0000
,  // measure 76
0100
0010
0001
0100
0001
0100
1000
0000
,  // measure 77
0100
0010
0001
0100
0001
0100
1000
0000
,  // measure 78
0010
0001
0100
0010
0001
0100
1000
0000
,  // measure 79
0100
0010
0001
0100
0001
0100
1000
0000
,  // measure 80
0100
0010
0001
0100
0001
0100
1000
0000
,  // measure 81
0200
0000
0000
0000
0300
0000
0100
0010
,  // measure 82
0100
0000
0000
0000
0100
0000
0000
0000
0001
0000
0000
0010
0100
0000
0001
0000
,  // measure 83
0100
0000
0010
0000
0001
0000
0100
0000
1000
0000
0000
0010
0001
0000
0100
0000
,  // measure 84
0001
0000
1000
0000
0100
0000
0001
0000
0100
0000
0000
0010
0100
0000
0001
0000
,  // measure 85
0010
0000
0101
0000
0001
1000
0001
0100
,  // measure 86
1000
0000
0010
0000
0001
0000
0100
0000
1000
0000
0000
0001
0100
0000
0010
0000
,  // measure 87
0100
0000
0010
0000
0100
0000
0001
0000
1000
0000
0000
0001
0010
0000
0100
0000
,  // measure 88
0100
0000
0010
0000
0001
0000
0100
0000
0010
0000
0000
1000
0100
0000
0001
0000
,  // measure 89
0010
0000
0000
0000
0100
0000
0000
0000
0001
0000
0000
0010
0100
0000
0001
0000
,  // measure 90
0100
0000
0001
0000
1000
0000
0010
0000
0100
0000
0000
0001
0010
0000
0100
0000
,  // measure 91
0001
0000
1000
0000
0100
0000
0001
0000
0010
0000
0000
0100
0001
0000
1000
0000
,  // measure 92
0100
0000
0010
0000
0001
0000
0100
0000
1000
0000
0000
0001
0010
0000
0100
0000
,  // measure 93
0001
0000
0010
0000
1000
0000
0001
0000
0100
0000
0000
0010
0001
0000
0100
0000
,  // measure 94
1000
0000
0000
0000
0100
0000
0000
0000
0001
0000
0000
0010
0000
0000
0001
0000
,  // measure 95
0100
0000
0000
0000
0001
0000
0000
0000
0010
0000
0000
0100
0000
0000
0010
0000
,  // measure 96
0220
0000
0000
0000
,  // measure 97
0000
0000
0000
0330
,  // measure 98
0010
0000
0100
0000
0100
0000
0010
0000
0001
0000
0010
0100
0000
0001
1000
0000
,  // measure 99
0100
0000
0001
0000
0010
0000
0001
0000
0100
0000
0001
1000
0000
0100
0001
0000
,  // measure 100
1000
0000
0100
0000
0100
0000
0010
0000
0001
1000
0100
0000
0000
0100
0001
0000
,  // measure 101
0010
0000
0100
0000
0001
0000
1000
0000
0001
0000
0010
0100
0000
0001
1000
0000
,  // measure 102
0001
0000
1000
0000
0001
0000
0100
0000
0010
0000
1000
0100
0000
0001
0010
0000
,  // measure 103
0001
0000
0100
0000
0010
0000
0100
0000
0001
0000
0100
0100
0000
0010
0100
0000
,  // measure 104
0001
0000
0100
0000
0001
0000
1000
0000
0001
0000
0010
0100
0000
0001
1000
0000
,  // measure 105
0100
0000
1000
0000
0001
0000
0100
0000
0010
0000
0100
0001
0010
0001
0100
0000
,  // measure 106
0001
0000
1000
0000
0001
0000
0100
0000
0010
0000
1000
0100
0000
0001
0010
0000
,  // measure 107
0001
0000
1000
0000
0001
0000
0100
0000
0010
0000
0100
1000
0000
0001
0010
0000
,  // measure 108
0001
0000
0100
0000
0001
0000
0100
0000
0010
0000
1000
0100
0000
0001
0010
0000
,  // measure 109
0001
0000
0100
0000
0001
0000
0100
0000
0010
0000
1000
0100
0010
0001
0010
0000
,  // measure 110
0001
0000
1000
0000
0001
0000
0100
0000
0010
0000
1000
0100
0000
0001
0010
0000
,  // measure 111
0001
0000
0100
0000
0001
0000
0100
0000
0010
0000
0100
0001
0000
0100
0010
0000
,  // measure 112
0001
0000
1000
0000
0001
0000
0100
0000
0010
0000
0100
0001
0000
0100
0010
0000
,  // measure 113
0001
0000
1000
0000
0001
0000
0100
0000
0010
0000
0001
0100
0000
0010
0100
0000
;
