#TITLE:miami crest;
#SUBTITLE:;
#ARTIST:Namasenda;
#TITLETRANSLIT:;
#SUBTITLETRANSLIT:;
#ARTISTTRANSLIT:;
#GENRE:;
#CREDIT:;
#BANNER:;
#BACKGROUND:;
#LYRICSPATH:;
#CDTITLE:;
#MUSIC:Miami Crest.ogg;
#OFFSET:0.000000;
#SAMPLESTART:100.059883;
#SAMPLELENGTH:12.000000;
#SELECTABLE:YES;
#BPMS:0.000000=160.000000
;
#STOPS:
;
#BGCHANGES:;
#KEYSOUNDS:;
#ATTACKS:;

//---------------dance-single - ----------------
#NOTES:
     dance-single:
     :
     Hard:
     16:
     0.809658,0.870046,0.112851,0.025078,0.702181,904.000000,886.000000,18.000000,4.000000,0.000000,0.000000,0.809658,0.870046,0.112851,0.025078,0.702181,904.000000,886.000000,18.000000,4.000000,0.000000,0.000000:
// measure 0
0000
0000
0000
0000
,  // measure 1
0000
0000
0000
0000
,  // measure 2
0000
0000
0000
0000
,  // measure 3
0000
0000
0000
0000
,  // measure 4
0000
0000
0000
0000
,  // measure 5
0000
0000
0000
0000
,  // measure 6
0000
0000
0000
0000
,  // measure 7
0000
0000
0000
0000
,  // measure 8
1000
0100
0001
0100
0000
0000
0010
0100
,  // measure 9
0000
0000
0000
0010
0100
0000
0001
0000
,  // measure 10
0000
0000
0100
0001
0100
0001
0000
0100
,  // measure 11
0010
0001
0100
0001
0110
0000
0101
0000
,  // measure 12
0001
0100
0001
0100
0000
0000
0001
0100
,  // measure 13
0000
0000
0000
1000
0100
0000
0001
0000
,  // measure 14
0000
0000
0000
0000
0001
0100
0001
1000
,  // measure 15
0101
0101
0101
0101
,  // measure 16
0010
0001
0100
1000
0000
0000
0001
0100
,  // measure 17
0000
0000
0000
0001
0001
0000
0001
0000
,  // measure 18
0000
0000
0010
0001
0100
1000
0000
0010
,  // measure 19
0100
0001
0100
0010
0101
0000
0101
0000
,  // measure 20
0010
0001
0100
1000
0000
0000
0001
0100
,  // measure 21
0000
0000
0000
0001
0100
0000
1000
0000
,  // measure 22
0000
0000
0000
0001
1000
0001
0100
0010
,  // measure 23
0002
0000
0000
0000
0003
0000
0001
0100
,  // measure 24
1000
0000
0100
0010
0001
0000
0100
0000
0001
0000
0010
0100
0001
0000
1000
0000
,  // measure 25
0100
0000
0001
0010
0100
0000
0001
0000
1000
0000
0100
0001
0010
0000
0100
0000
,  // measure 26
0010
0000
0010
0100
0010
0000
0100
0000
0010
0000
0001
1000
0100
0000
0010
0000
,  // measure 27
0100
0000
0010
0001
0100
0000
0010
0000
0100
0000
0001
0010
0100
0000
1000
0000
,  // measure 28
0001
0000
0100
0010
1001
0000
0100
0000
0010
0000
0001
0100
0010
0000
0001
0000
,  // measure 29
1000
0000
0100
0001
0010
0000
0100
0000
0001
0000
0100
0001
0010
0000
0010
0000
,  // measure 30
0100
0000
1000
0001
0100
0000
0010
0000
0100
0000
0010
0100
0001
0000
0100
0000
,  // measure 31
1000
0000
0001
0010
0100
0000
0010
0000
0001
0000
0010
0100
0001
0000
0100
0000
,  // measure 32
1000
0000
0010
0100
0100
0000
0001
0000
1000
0000
0100
0001
0010
0000
0100
0000
,  // measure 33
0001
0000
0010
0100
0001
0000
1000
0000
0100
0000
0001
0010
0100
0000
0001
0000
,  // measure 34
0100
0000
0010
0001
0100
0000
1000
0000
0001
0000
0100
0010
0001
0000
0100
0000
,  // measure 35
1000
0000
0100
0010
0001
0000
0100
0000
1000
0000
0100
0010
0001
0000
0100
0000
,  // measure 36
1000
0000
0100
0010
0100
0000
0001
0000
1000
0000
0010
0100
0001
0000
1000
0000
,  // measure 37
0100
0000
0001
0010
0100
0000
0001
0000
1000
0000
0100
0001
0010
0000
0100
0000
,  // measure 38
0001
0000
0100
0001
0010
0000
0100
0000
0001
0000
1000
0100
0001
0000
0010
0000
,  // measure 39
0100
0000
0001
0100
0001
0000
0100
0000
0010
0000
0100
0010
0001
0000
0100
0000
,  // measure 40
1000
0010
0001
0100
0000
0001
0100
0010
,  // measure 41
0000
0000
0000
0010
0001
0000
0100
0000
,  // measure 42
0000
0000
0100
0001
1000
0100
0000
0100
,  // measure 43
0010
0001
1000
0001
0101
0000
0101
0000
,  // measure 44
0010
0001
0100
1000
0000
0010
0100
0001
,  // measure 45
0000
0000
0000
0010
0001
0000
0100
0000
,  // measure 46
0000
0000
0000
0010
0001
0100
0001
0100
,  // measure 47
1001
0101
0101
0101
,  // measure 48
0010
0001
1000
0100
0000
0010
0100
0001
,  // measure 49
0000
0000
0000
0001
0100
0000
1000
0000
,  // measure 50
0000
0000
0100
0010
0100
0001
0000
0001
,  // measure 51
1000
0001
0100
0010
0101
0000
0101
0000
,  // measure 52
0010
0001
0100
1000
0000
0010
0001
0100
,  // measure 53
0000
0000
0000
0010
0100
0000
0010
0000
,  // measure 54
0000
0000
0000
0010
0001
0100
0001
0100
,  // measure 55
2002
0000
0000
3003
,  // measure 56
0100
0000
0010
0100
0001
0010
1000
0000
0100
0000
0001
0010
0100
0001
0100
0000
,  // measure 57
0001
0000
0100
0001
1000
0001
0010
0000
0100
0000
0001
0100
0001
1000
0001
0000
,  // measure 58
0010
0000
0100
0001
1000
0001
0010
0000
0100
0000
0001
0100
0001
1000
0001
0000
,  // measure 59
0010
0000
0100
0001
1000
0001
0010
0000
0100
0000
0001
0010
0100
0001
1000
0000
,  // measure 60
0010
0000
0100
0010
0100
0001
0100
0000
0010
0000
0001
0100
0001
1000
0100
0000
,  // measure 61
0010
0000
0100
0010
0100
0001
0100
0000
0010
0000
0001
0100
0001
1000
0100
0000
,  // measure 62
0010
0000
0100
0001
1000
0001
0010
0000
0100
0000
0001
0100
0001
0100
0010
0000
,  // measure 63
0100
0000
0010
0001
0100
0010
0100
0000
0000
0000
0000
0000
0001
0000
0100
0000
,  // measure 64
1000
0000
0100
0010
0100
0001
0010
0000
0100
0000
0010
0100
0001
1000
0001
0000
,  // measure 65
0010
0000
0100
0001
1000
0001
0010
0000
0100
0000
0001
0010
0100
0001
0100
0000
,  // measure 66
0010
0000
0100
0001
1000
0001
0010
0000
0100
0000
0010
0100
0001
1000
0001
0000
,  // measure 67
0100
0000
0010
0100
0001
1000
0100
0000
0010
0000
0100
0001
1000
0001
0010
0000
,  // measure 68
0100
0000
0001
0100
0001
0100
0010
0000
0001
0000
0100
0010
0100
0001
0100
0000
,  // measure 69
0010
0000
0100
0001
0010
0001
0100
0000
0010
0000
0100
0001
1000
0001
0010
0000
,  // measure 70
1000
0000
0100
0001
0010
0100
0001
0000
0010
0000
0100
0001
1000
0001
0010
0000
,  // measure 71
0100
0000
0010
0100
0001
1000
0001
0000
0010
0000
0100
0001
0100
0010
0100
0000
,  // measure 72
0010
0000
0100
0001
1000
0100
0001
0000
0010
0000
0100
0001
0100
0001
0010
0000
,  // measure 73
0100
0000
0001
1000
0100
0001
0010
0000
0100
0000
0010
0100
0001
1000
0100
0000
,  // measure 74
0010
0000
0100
0001
1000
0001
0010
0000
0100
0000
0001
0100
0001
0010
0100
0000
,  // measure 75
0010
0000
0100
0001
0100
0010
0001
0000
0100
0000
0010
0100
0001
1000
0100
0000
,  // measure 76
0010
0000
0100
0001
1000
0001
0010
0000
0100
0000
0001
0100
0001
0100
0010
0000
,  // measure 77
0100
0000
0001
1000
0100
0001
0010
0000
0100
0000
0001
0100
0001
0010
0100
0000
,  // measure 78
0010
0000
0100
0010
0001
0100
0001
0000
0100
0000
0010
0001
1000
0010
0100
0000
,  // measure 79
0010
0000
0100
0010
0100
0001
0100
0000
0010
0000
0001
0100
1000
0100
0010
0000
,  // measure 80
0100
0000
0010
0100
0001
0100
0010
0000
0100
0000
0010
0100
0001
1000
0100
0000
,  // measure 81
0010
0000
0100
0001
1000
0001
0010
0000
0100
0001
0100
0001
0010
0100
0010
0000
,  // measure 82
0100
0000
0001
0010
0100
0001
1000
0000
0001
0000
0010
0100
0001
0100
0010
0000
,  // measure 83
0001
0000
0001
0100
0010
0100
0001
0000
0010
0000
0100
0001
1000
0001
0010
0000
,  // measure 84
0010
0000
0100
0010
0010
0100
0100
0000
0001
0000
0100
0001
0100
0001
0010
0000
,  // measure 85
0100
0000
0001
1000
0100
0001
0010
0000
0100
0000
0010
0100
0001
1000
0001
0000
,  // measure 86
0010
0000
0010
0100
0010
0100
0001
0000
0100
0000
0010
0100
0001
1000
0100
0000
,  // measure 87
0010
0000
0100
0001
1000
0001
0010
0000
0100
0000
0010
0100
0001
1000
0001
0000
,  // measure 88
0010
0000
0100
0001
1000
0001
0010
0000
0100
0000
0010
0100
0001
1000
0100
0000
,  // measure 89
0010
0000
0100
0001
1000
0001
0010
0000
0100
0000
0010
0100
0001
1000
0001
0000
,  // measure 90
0010
0000
0100
0001
0100
0010
0100
0000
0010
0000
0100
0001
1000
0001
0010
0000
,  // measure 91
0010
0000
0100
0010
0100
0001
0100
0000
0010
0000
0001
1000
0001
0100
0010
0000
,  // measure 92
1000
0000
0100
0001
0010
0100
0010
0000
0100
0000
1000
0100
0001
0010
0100
0000
,  // measure 93
0010
0000
0001
0100
0001
0100
0010
0000
0100
0000
0010
0100
0001
1000
0100
0000
,  // measure 94
0010
0000
0100
0001
1000
0100
0001
0000
0010
0000
0100
0001
1000
0001
0010
0000
,  // measure 95
0100
0000
0010
0100
0001
1000
0100
0000
0010
0000
0100
0001
1000
0001
0010
0000
,  // measure 96
0010
0000
0100
0010
0001
0100
0001
0000
0100
0000
0010
0100
0001
1000
0100
0000
,  // measure 97
0010
0000
0100
0001
1000
0001
0010
0000
0100
0000
0001
0100
0001
0010
0100
0000
,  // measure 98
0001
0000
0100
0001
0010
0100
0001
0000
0100
0000
0010
0100
0001
1000
0100
0000
,  // measure 99
0010
0000
0100
0001
1000
0001
0010
0000
0100
0000
0001
0100
0001
0100
0001
0000
,  // measure 100
0010
0000
0100
0001
1000
0001
0010
0000
0100
0000
0010
0100
0001
1000
0100
0000
,  // measure 101
0010
0000
0100
0001
1000
0001
0010
0000
0100
0000
0010
0100
0001
0100
0001
0000
,  // measure 102
0010
0000
0100
0001
1000
0001
0010
0000
0100
0000
0001
0100
0001
0010
0100
0000
,  // measure 103
0100
0000
0010
0100
0001
1000
0100
0000
0010
0000
0100
0001
1000
0001
0010
0100
,  // measure 104
0002
0000
0000
0000
,  // measure 105
0000
0000
0000
0000
,  // measure 106
0000
0000
0000
0003
;
