#VERSION:0.83;
#TITLE:me and the rhythm;
#SUBTITLE:;
#ARTIST:Selena Gomez;
#TITLETRANSLIT:;
#SUBTITLETRANSLIT:;
#ARTISTTRANSLIT:;
#GENRE:;
#ORIGIN:;
#CREDIT:;
#BANNER:;
#BACKGROUND:;
#PREVIEWVID:;
#JACKET:;
#CDIMAGE:;
#DISCIMAGE:;
#LYRICSPATH:;
#CDTITLE:;
#MUSIC:Selena Gomez - Me & The Rhythm.ogg;
#OFFSET:0.000000;
#SAMPLESTART:100.059883;
#SAMPLELENGTH:12.000000;
#SELECTABLE:YES;
#BPMS:0.000=106.000;
#STOPS:0.000=0.400;
#DELAYS:;
#WARPS:;
#TIMESIGNATURES:0.000=4=4;
#TICKCOUNTS:0.000=4;
#COMBOS:0.000=1;
#SPEEDS:0.000=1.000=0.000=0;
#SCROLLS:0.000=1.000;
#FAKES:;
#LABELS:0.000=Song Start;
#BGCHANGES:;
#KEYSOUNDS:;
#ATTACKS:
;

//---------------dance-single - ----------------
#NOTEDATA:;
#CHARTNAME:;
#STEPSTYPE:dance-single;
#DESCRIPTION:;
#CHARTSTYLE:;
#DIFFICULTY:Hard;
#METER:10;
#RADARVALUES:0.347169,0.466318,0.085270,0.104218,0.352922,513.000000,495.000000,18.000000,22.000000,0.000000,0.000000,0.000000,0.000000,0.000000,0.347169,0.466318,0.085270,0.104218,0.352922,513.000000,495.000000,18.000000,22.000000,0.000000,0.000000,0.000000,0.000000,0.000000;
#CREDIT:;
#NOTES:
// measure 0
0000
0000
0000
0000
,  // measure 1
0000
0000
0000
0000
,  // measure 2
0000
0000
0000
0000
,  // measure 3
0000
0000
0000
0000
,  // measure 4
0100
0000
0000
0010
0001
0000
0000
0100
1000
0000
0000
0010
0001
0000
0000
0100
,  // measure 5
0000
0000
0000
0000
0001
1000
0001
0100
,  // measure 6
0010
0000
0000
0001
0000
0000
1000
0000
0000
0000
0000
0000
0000
0000
0100
0000
,  // measure 7
0001
0000
0000
1000
0000
0000
0100
0000
0000
0000
0000
0000
0000
0000
0000
0000
,  // measure 8
0001
0000
0000
0100
1000
0000
0000
0001
0100
0000
0000
0010
0001
0000
0000
0100
,  // measure 9
1000
0000
0000
0000
0100
0001
0100
0001
,  // measure 10
1000
0000
0000
0001
0000
0000
0010
0000
0000
0000
0000
0000
0000
0000
0010
0000
,  // measure 11
0001
0000
0000
1000
0000
0000
0100
0000
0000
0000
0000
0000
0000
0000
0000
0001
,  // measure 12
0100
0000
1000
0100
0000
0010
0000
0000
1000
0001
0000
0000
0100
0000
0000
0000
,  // measure 13
0100
0000
0001
1000
0000
0010
0100
0000
0000
0001
0100
0000
1000
0000
0000
0010
,  // measure 14
0100
0000
0001
1000
0000
0100
0001
0000
0000
1000
0100
0000
1000
0000
0000
0000
,  // measure 15
0000
0000
0000
0000
0000
0000
0100
0010
1000
0000
0001
0000
0100
0000
1000
0000
,  // measure 16
0100
0000
0010
1000
0000
0010
0100
0000
0000
0100
0001
0000
0010
0000
0000
0000
,  // measure 17
0100
0000
0001
1000
0000
0100
0001
0000
0000
0010
0100
0000
0010
0000
0000
0000
,  // measure 18
0100
0000
0010
0100
0000
0001
0010
0000
0000
0100
1000
0000
0010
0000
0000
0000
,  // measure 19
0000
0000
0000
0000
0000
0010
0001
0100
,  // measure 20
2002
0000
0000
0000
,  // measure 21
0000
0000
0000
0000
0000
0000
0000
0000
3003
0000
0000
0000
0010
0000
0000
0100
,  // measure 22
1000
0001
0000
0000
0000
0000
0000
0000
0000
0000
1000
0000
0100
0000
0000
0010
,  // measure 23
0100
0001
0000
0000
0000
0000
0000
0000
0000
0000
1000
0000
0100
0000
0001
0000
,  // measure 24
0200
0000
0000
0000
,  // measure 25
0000
0000
0000
0000
0000
0000
0000
0000
0300
0000
0000
0000
1000
0000
0000
0100
,  // measure 26
0001
0010
0000
0000
0000
0000
0000
0000
0000
0000
0100
0000
0010
0000
0000
0001
,  // measure 27
0100
1000
0000
0000
0000
0000
0000
0000
0000
0000
1000
0000
0000
0000
0000
0100
,  // measure 28
0001
0010
0000
0100
0001
0000
1000
0100
0000
0010
0100
0000
0001
0000
1000
0000
,  // measure 29
0100
0001
0000
0010
0100
0000
0001
1000
0000
0100
0001
0000
0010
0000
0100
0000
,  // measure 30
0010
0001
0000
0100
0001
0000
1000
0100
0000
0001
0100
0000
0010
0000
0100
0000
,  // measure 31
0000
0000
0000
0000
0000
0000
1000
0100
0001
0000
0010
0000
0100
0000
0001
0000
,  // measure 32
0020
0000
0000
0000
,  // measure 33
0000
0000
0000
0000
0000
0000
0000
0000
0030
0000
0000
0000
0010
0000
0000
0001
,  // measure 34
1000
0100
0000
0000
0000
0000
0000
0000
0000
0000
0100
0000
0010
0000
0000
0001
,  // measure 35
1000
0100
0000
0000
0000
0000
0000
0000
0000
0000
0000
0000
1001
0000
0000
0000
,  // measure 36
0100
0000
0000
0001
1000
0000
0000
0001
0100
0000
0000
0010
0200
0000
0000
0000
,  // measure 37
0300
0000
0110
0000
0001
0010
0001
0100
,  // measure 38
0010
0000
0000
0001
0000
0000
1000
0000
0000
0000
0000
0000
0000
0000
0100
0000
,  // measure 39
0001
0000
0000
0100
0000
0000
0010
0000
0000
0000
0000
0000
1001
0000
0000
0000
,  // measure 40
1000
0000
0000
0001
0010
0000
0000
0100
0001
0000
0000
0010
0200
0000
0000
0000
,  // measure 41
0000
0000
0300
0001
1000
0010
0001
0100
,  // measure 42
0010
0000
0000
0001
0000
0000
0100
0000
0000
0000
0000
0000
0000
0000
0010
0000
,  // measure 43
0001
0000
0000
1000
0000
0000
0100
0000
0000
0000
0000
0000
1001
0000
0000
0100
,  // measure 44
0001
0000
1000
0100
0000
0001
0010
0000
0010
0100
0000
0000
0000
0000
0000
0000
,  // measure 45
0010
0000
0001
0100
0000
0010
0001
0000
1000
0100
0000
0000
0010
0000
0000
0000
,  // measure 46
0100
0000
0010
0001
0000
0100
0010
0000
0001
0100
0000
0000
0010
0000
0000
0000
,  // measure 47
0000
0000
0000
0000
0000
0000
0001
0100
1000
0000
0001
0000
0100
0000
1000
0000
,  // measure 48
0100
0000
0010
0001
0000
0100
0001
0000
0010
0100
0000
0000
0010
0000
0000
0000
,  // measure 49
0100
0000
0010
0100
0000
0010
0001
0000
0100
1000
0000
0000
0100
0000
0000
0000
,  // measure 50
1000
0000
0100
0001
0000
0010
0100
0000
0001
1000
0000
0000
0010
0000
0000
0000
,  // measure 51
0000
0000
0220
0000
0000
0000
0000
0000
0000
0000
0330
0000
0000
0000
0000
0010
0000
0000
0100
0000
0000
0001
0000
0000
,  // measure 52
2002
0000
0000
0000
,  // measure 53
0000
0000
0000
0000
0000
0000
0000
0000
3003
0000
0000
0000
0010
0000
0000
0001
,  // measure 54
0100
1000
0000
0000
0000
0000
0100
0000
0001
0000
1000
0000
0010
0000
0000
1000
,  // measure 55
0100
0001
0000
0000
0000
0000
0100
0000
0100
0000
0001
0000
1000
0000
0001
0000
,  // measure 56
2002
0000
0000
0000
,  // measure 57
0000
0000
0000
0000
0000
0000
0000
0000
3003
0000
0000
0000
0010
0000
0000
0100
,  // measure 58
1000
0001
0000
0000
0000
0000
0100
0000
0100
0000
0001
0000
1000
0000
0000
0010
,  // measure 59
0100
0001
0000
0000
0000
0000
0100
0000
0100
0000
1001
0000
0000
0000
0000
0010
,  // measure 60
0100
0001
0000
0010
0100
0000
0001
1000
0000
0100
0001
0000
0010
0000
0100
0000
,  // measure 61
0001
1000
0000
0100
0001
0000
0010
0100
0000
0001
1000
0000
0100
0000
0001
0000
,  // measure 62
0010
0100
0000
0001
1000
0000
0100
0001
0000
0010
0100
0000
0001
0000
1000
0000
,  // measure 63
0000
0000
0000
0000
0000
0000
0001
0100
1000
0000
0001
0000
0100
0000
0010
0000
,  // measure 64
2002
0000
0000
0000
,  // measure 65
0000
0000
0000
0000
0000
0000
0000
0000
3003
0000
0000
0000
0001
0000
0000
0001
,  // measure 66
1000
0100
0000
0000
0000
0000
0010
0000
0010
0000
0100
0000
0001
0000
0000
1000
,  // measure 67
0100
0001
0000
0000
0000
0000
0010
0000
0010
0000
0000
0000
1001
0000
0000
0000
,  // measure 68
0001
0000
1000
0000
0001
0000
0100
0000
0010
0000
0001
0100
0000
0000
0010
0000
,  // measure 69
0001
0000
0100
0000
0010
0000
0001
0100
0000
0000
0000
0000
0000
0000
0000
0000
,  // measure 70
0100
0000
0001
0000
0100
0000
0010
0000
0001
0000
0100
1000
0000
0000
0100
0000
,  // measure 71
0001
0000
0100
0000
0001
0000
0100
1000
0000
0000
0000
0000
0000
0000
0000
0000
,  // measure 72
0010
0000
0001
0000
0100
0000
0010
0000
0001
0000
0100
1000
0000
0000
0010
0000
,  // measure 73
0001
0000
0100
0000
0001
0000
1000
0100
0000
0000
0000
0000
0000
0000
0000
0000
,  // measure 74
0001
0000
1000
0000
0001
0000
0010
0000
0100
0000
1000
0100
0000
0000
0001
0000
,  // measure 75
0100
0000
1000
0000
0001
0000
0100
0010
0000
0000
1001
0000
0010
0000
0001
0000
,  // measure 76
2002
0000
0000
0000
,  // measure 77
0000
0000
0000
0000
0000
0000
0000
0000
3003
0000
0000
0000
0001
0000
0000
1000
,  // measure 78
0001
0100
0000
0000
0000
0000
0010
0000
0010
0000
0100
0000
0010
0000
0000
0001
,  // measure 79
1000
0100
0000
0000
0000
0000
0001
0000
1001
0000
0001
0000
1001
0000
1000
0000
,  // measure 80
2002
0000
0000
0000
,  // measure 81
3003
0000
1000
0000
0100
0000
0001
0000
0000
0000
0100
0000
0010
0000
0000
0001
,  // measure 82
1000
0100
0000
0000
0000
0000
1000
0000
1000
0000
0100
0000
0001
0000
0000
0010
,  // measure 83
0100
0001
0000
0000
0000
0000
0010
0000
1000
0000
0001
0000
0100
0000
0010
0000
,  // measure 84
0100
0001
0000
1000
0100
0000
0001
0010
0000
0100
0001
0000
1000
0000
0100
0000
,  // measure 85
0001
0010
0000
0100
0001
0000
1000
0100
0000
0001
0010
0000
0100
0000
0001
0000
,  // measure 86
1000
0100
0000
0001
0010
0000
0100
0001
0000
0010
0100
0000
0001
0000
1000
0000
,  // measure 87
0000
0000
0000
0000
0000
0000
0001
0100
0010
0000
0001
0000
1000
0000
0100
0000
,  // measure 88
0220
0000
0000
0000
,  // measure 89
0000
0000
0000
0000
0000
0000
0000
0000
0330
0000
0000
0000
0100
0000
0000
0001
,  // measure 90
0100
1000
0000
0000
0000
0000
1000
0000
1000
0000
0100
0000
0001
0000
0000
0010
,  // measure 91
0100
0001
0000
0000
0000
0000
0010
0000
0010
0000
0000
0000
0220
0000
0000
0000
,  // measure 92
0000
0000
0000
0000
,  // measure 93
0000
0000
0000
0330
;
