#TITLE:many lives;
#SUBTITLE:;
#ARTIST:Purity Ring;
#TITLETRANSLIT:;
#SUBTITLETRANSLIT:;
#ARTISTTRANSLIT:;
#GENRE:;
#CREDIT:;
#BANNER:;
#BACKGROUND:;
#LYRICSPATH:;
#CDTITLE:;
#MUSIC:many lives.ogg;
#OFFSET:0.000000;
#SAMPLESTART:100.059883;
#SAMPLELENGTH:12.000000;
#SELECTABLE:YES;
#BPMS:0.000000=81.000000
,48.000000=162.000000
,240.000000=81.000000
,272.000000=162.000000
;
#STOPS:0.000000=0.200000
;
#BGCHANGES:;
#KEYSOUNDS:;
#ATTACKS:;

//---------------dance-single - ----------------
#NOTES:
     dance-single:
     :
     Hard:
     15:
     0.707631,0.708468,0.005516,0.016548,0.559880,898.000000,897.000000,1.000000,3.000000,0.000000,0.000000,0.707631,0.708468,0.005516,0.016548,0.559880,898.000000,897.000000,1.000000,3.000000,0.000000,0.000000:
// measure 0
0000
0000
0000
0000
,  // measure 1
0000
0000
0000
0000
,  // measure 2
0000
0000
0000
0000
,  // measure 3
0000
0000
0000
0000
,  // measure 4
0100
0000
0001
0000
1000
0000
0100
0001
0000
0000
1000
0100
0001
0010
0000
0100
,  // measure 5
0000
0000
0001
0000
0100
0001
0000
1000
0100
0000
0001
0000
1000
0000
0001
0000
,  // measure 6
0100
0000
0010
0000
0001
0000
0010
0100
0000
0000
0001
0000
0010
0100
0000
0001
,  // measure 7
0000
0000
0001
0000
1000
0100
0000
0001
1000
0000
0100
0000
0010
0001
0000
0100
,  // measure 8
0000
0000
0010
0000
0001
0000
1000
0100
0000
0000
0100
0000
0010
0000
0001
0100
,  // measure 9
0000
0000
0010
0000
0001
0000
0100
1000
0100
0001
0000
0000
0100
0000
0001
0010
,  // measure 10
0000
0000
0010
0000
0001
0000
0100
1000
0000
0000
0100
0001
0000
0010
0000
0001
,  // measure 11
0000
0000
0000
1000
0000
0100
0000
0001
0000
0001
0100
0000
0000
0000
0010
0000
,  // measure 12
0001
0100
0001
1000
0010
0001
1000
0001
,  // measure 13
0100
0000
0010
0000
0001
0000
1000
0000
0001
0010
0100
0001
0010
0100
0001
0010
,  // measure 14
1000
0001
0100
0010
0001
0100
0001
0100
,  // measure 15
1000
0000
0010
0000
0001
0000
1000
0000
0001
0010
0100
0001
0010
0100
0001
0010
,  // measure 16
1000
0010
0001
1000
0001
0100
0010
0001
,  // measure 17
1000
0000
0001
0000
0100
0000
0010
0000
0100
0100
0001
1000
0001
0100
1000
0010
,  // measure 18
0100
0010
0001
0100
0001
0100
0010
0001
,  // measure 19
1000
0000
0001
0000
0100
0000
0010
0000
1000
0001
0100
0010
0001
0100
0001
1000
,  // measure 20
0100
0010
0001
0100
0001
0100
0010
0001
,  // measure 21
1000
0000
0001
0000
0100
0000
0010
0000
0100
0010
0001
1000
0001
0100
0001
1000
,  // measure 22
0100
0100
0010
0001
1000
0001
0100
0010
,  // measure 23
1000
0000
0001
0000
0100
0000
0010
0000
0001
0100
0010
0001
1000
0001
0100
1000
,  // measure 24
0100
0010
0001
1000
0001
0100
0010
0001
,  // measure 25
1000
0000
0001
0000
0100
0000
0010
0000
0010
0001
0100
0010
0001
0100
0001
0100
,  // measure 26
1000
0100
0010
0001
1000
0001
0100
0010
,  // measure 27
0001
0000
1000
0000
0001
0000
0100
0000
0010
0001
1000
0001
0100
0010
0100
0001
,  // measure 28
1000
0100
0010
0001
1000
0001
0100
0010
,  // measure 29
0001
0000
1000
0000
0001
0000
0100
0000
0010
0001
1000
0001
0100
0010
1000
0100
,  // measure 30
0001
0100
0010
0001
1000
0001
0100
0010
,  // measure 31
0001
0000
1000
0000
0001
0000
0100
0000
0010
0001
0100
0010
0001
1000
0001
0100
,  // measure 32
1000
0100
0010
0001
1000
0001
0100
0010
,  // measure 33
0001
0000
1000
0000
0001
0000
0100
0000
0010
0001
0100
0010
0001
1000
0001
0100
,  // measure 34
0001
0100
0010
0001
1000
0001
0100
0010
,  // measure 35
0001
0000
1000
0000
0001
0000
0100
0000
0010
0001
0100
0010
0001
1000
0001
0100
,  // measure 36
1000
0100
0010
0001
1000
0001
0100
0010
,  // measure 37
0001
0000
1000
0000
0001
0000
0100
0000
0010
0001
1000
0001
0100
0010
1000
0100
,  // measure 38
0001
0100
0010
0001
1000
0001
0100
0010
,  // measure 39
0001
0000
1000
0000
0001
0000
0100
0000
0010
0001
0100
0010
0001
1000
0001
0100
,  // measure 40
1000
0100
0010
0001
1000
0001
0100
0010
,  // measure 41
0001
0000
1000
0000
0001
0000
0100
0000
0010
0001
0100
0010
0001
1000
0001
0100
,  // measure 42
1000
0100
0010
0001
1000
0001
0100
0010
,  // measure 43
2002
0000
0000
3003
,  // measure 44
0001
0100
0010
0001
1000
0001
0100
0010
,  // measure 45
0001
0000
1000
0000
0001
0000
0100
0000
0010
0001
0100
0010
0001
0100
0001
0100
,  // measure 46
1000
0100
0010
0001
1000
0001
0100
0010
,  // measure 47
0001
0000
1000
0000
0001
0000
0100
0000
0010
0001
0100
0010
0001
1000
0001
0100
,  // measure 48
1000
0100
0010
0001
1000
0001
0100
0010
,  // measure 49
0001
0000
1000
0000
0001
0000
0100
0000
0010
0001
0100
0010
0001
1000
0001
0100
,  // measure 50
1000
0100
0010
0001
1000
0001
0100
0010
,  // measure 51
0001
0000
1000
0000
0001
0000
0100
0000
0010
0001
0100
0010
0001
1000
0001
0100
,  // measure 52
1000
0010
0001
1000
0001
0100
0010
0001
,  // measure 53
1000
0000
0001
0000
0100
0000
0010
0000
0100
0001
0100
0010
0001
1000
0001
0100
,  // measure 54
1000
0100
0010
0001
1000
0001
0100
0010
,  // measure 55
0001
0000
1000
0000
0001
0000
0100
0000
0010
0001
0100
0010
0001
1000
0001
0100
,  // measure 56
1000
0010
0100
0001
1000
0001
0100
0010
,  // measure 57
0001
0000
1000
0000
0001
0000
0100
0000
0010
0001
0100
0010
0001
1000
0001
0100
,  // measure 58
1000
0100
0000
0001
1000
0000
0100
0001
,  // measure 59
0000
0100
0001
0000
0001
0000
0100
0000
,  // measure 60
1000
0000
0100
0000
0001
0000
0010
0100
0000
0000
0001
1000
0000
0100
0000
0001
,  // measure 61
0000
0000
0010
0000
0001
0000
0010
0100
0000
0001
0000
0010
0000
0000
0010
0001
,  // measure 62
0000
0000
0001
0000
0100
0000
0001
0000
0010
0000
0001
0000
1000
0100
0000
0001
,  // measure 63
0000
0000
0100
0000
0010
0000
0100
0001
0000
0000
1000
0100
0000
0001
0000
0100
,  // measure 64
0001
0000
1000
0000
0100
0000
0001
0010
0000
0000
0001
0000
1000
0100
0000
0001
,  // measure 65
0000
0000
1000
0000
0001
0100
0000
0010
0000
0000
0001
0000
0000
1000
0100
0000
,  // measure 66
0000
0000
0010
0000
0100
0000
0001
0000
0100
0000
0010
0000
1000
0100
0000
0001
,  // measure 67
0000
0000
0010
0000
0001
0000
1000
0100
0000
0001
0010
0001
0000
0010
0000
0001
,  // measure 68
1000
0100
0001
0010
0100
0001
0100
0010
,  // measure 69
0001
0000
1000
0000
0001
0000
0100
0000
0010
0001
0100
0010
0001
1000
0001
0100
,  // measure 70
1000
0010
0001
1000
0001
0100
0010
0001
,  // measure 71
1000
0000
0001
0000
0100
0000
0010
0000
0100
0001
0100
0010
0001
1000
0001
0100
,  // measure 72
1000
0100
0010
0001
1000
0001
0100
0010
,  // measure 73
0001
0000
1000
0000
0001
0000
0100
0000
0010
0001
0100
0010
0001
1000
0001
0100
,  // measure 74
1000
0100
0010
0001
1000
0001
0100
0010
,  // measure 75
0001
0010
1000
0100
0001
0010
0100
0010
0100
0010
0001
1000
0001
0100
1000
0001
,  // measure 76
0010
0010
0001
1000
0001
0100
0010
0001
,  // measure 77
1000
0000
0001
0000
0010
0000
0100
0000
0010
0001
0100
0010
0001
1000
0001
0100
,  // measure 78
1000
0000
0001
0000
1000
0000
0001
0000
0100
0000
0010
0000
0001
0100
0001
0100
,  // measure 79
1000
0000
1000
0000
0001
0000
0100
0000
0010
0001
0100
0010
0001
1000
0001
0100
,  // measure 80
1000
0100
0010
0001
1000
0001
0100
0010
,  // measure 81
0001
0000
1000
0000
0001
0000
0100
0000
0010
0001
0100
0010
0001
1000
0001
0100
,  // measure 82
1000
0100
0001
0010
,  // measure 83
0100
0000
1000
0000
0100
0010
0100
0000
,  // measure 84
0100
0010
0001
0100
0001
0100
0010
0001
,  // measure 85
1000
0000
0001
0000
0100
0000
0010
0000
0001
0100
0010
0001
1000
0001
0100
1000
,  // measure 86
0001
0010
0100
0001
1000
0001
0010
0100
,  // measure 87
0001
0000
1000
0000
0001
0000
0010
0000
0100
0010
0100
0001
1000
0001
0010
0100
,  // measure 88
0001
0010
0001
1000
0001
0100
0010
0001
,  // measure 89
1000
0000
0001
0000
0100
0000
0010
0000
0100
0001
0100
0010
0001
1000
0001
0100
,  // measure 90
1000
0010
0100
0001
1000
0001
0100
0010
,  // measure 91
0001
0000
1000
0000
0001
0000
0100
0000
0010
0001
0100
0010
0001
1000
0001
0100
,  // measure 92
1000
0010
0001
0100
0001
0100
0010
0001
,  // measure 93
1000
0000
0001
0000
0100
0000
0010
0000
0001
0100
0010
0001
1000
0001
0100
1000
,  // measure 94
0001
0100
0010
0001
0100
0001
0100
0010
,  // measure 95
0001
0000
1000
0000
0001
0000
0100
0000
0010
0001
0100
0010
0001
1000
0001
0100
,  // measure 96
1000
0100
0010
0001
0100
0001
0100
0010
,  // measure 97
0001
0000
1000
0000
0001
0000
0100
0000
0010
0001
0100
0010
0001
1000
0001
0100
,  // measure 98
1000
0001
0000
0100
0010
0000
0001
0100
,  // measure 99
0000
0010
0001
0000
1000
0000
0200
0000
,  // measure 100
0000
0000
0000
0000
,  // measure 101
0000
0000
0000
0000
,  // measure 102
0000
0000
0000
0300
;
