#VERSION:0.83;
#TITLE:mightjuss;
#SUBTITLE:;
#ARTIST:FineeseKid & Lancey Foux;
#TITLETRANSLIT:;
#SUBTITLETRANSLIT:;
#ARTISTTRANSLIT:;
#GENRE:;
#ORIGIN:;
#CREDIT:;
#BANNER:;
#BACKGROUND:;
#PREVIEWVID:;
#JACKET:;
#CDIMAGE:;
#DISCIMAGE:;
#LYRICSPATH:;
#CDTITLE:;
#MUSIC:Finessekid & Lancey - MIGHTJUSS ( Official Music Video ).ogg;
#OFFSET:0.000000;
#SAMPLESTART:100.059883;
#SAMPLELENGTH:12.000000;
#SELECTABLE:YES;
#BPMS:0.000=149.000;
#STOPS:;
#DELAYS:;
#WARPS:;
#TIMESIGNATURES:0.000=4=4;
#TICKCOUNTS:0.000=4;
#COMBOS:0.000=1;
#SPEEDS:0.000=1.000=0.000=0;
#SCROLLS:0.000=1.000;
#FAKES:;
#LABELS:0.000=Song Start;
#BGCHANGES:0.000=Finessekid & Lancey - MIGHTJUSS ( Official Music Video ).mp4=1.000=0=0=1=====,
99999=-nosongbg-=1.000=0=0=0 // don't automatically add -songbackground-
;
#KEYSOUNDS:;
#ATTACKS:
;

//---------------dance-single - ----------------
#NOTEDATA:;
#CHARTNAME:;
#STEPSTYPE:dance-single;
#DESCRIPTION:;
#CHARTSTYLE:;
#DIFFICULTY:Hard;
#METER:14;
#RADARVALUES:0.606458,0.622901,0.040624,0.000000,0.710920,627.000000,621.000000,6.000000,0.000000,0.000000,0.000000,0.000000,0.000000,0.000000,0.606458,0.622901,0.040624,0.000000,0.710920,627.000000,621.000000,6.000000,0.000000,0.000000,0.000000,0.000000,0.000000,0.000000;
#CREDIT:;
#NOTES:
// measure 0
0000
0000
0000
0000
,  // measure 1
0000
0000
0000
0000
,  // measure 2
1000
0000
0000
0000
0100
0000
0000
0000
0001
0000
0000
0000
0100
0000
0000
0000
0001
0000
0000
0000
0010
0000
0000
0000
0100
0000
0000
0000
0000
0000
0000
0000
0000
0001
0000
0000
0000
0000
0000
0000
0000
0000
0010
0000
0000
0000
0000
0000
,  // measure 3
0100
0000
0000
0000
0010
0000
0000
0000
0001
0000
0000
0000
1000
0000
0000
0000
0001
0000
0000
0000
0100
0000
0000
0000
1000
0000
0000
0000
0000
0000
0000
0000
0000
0010
0000
0000
0000
0000
0000
0000
0000
0000
0001
0000
0000
0000
0000
0000
,  // measure 4
0100
0000
0000
0000
0010
0000
0000
0000
0001
0000
0000
0000
1000
0000
0000
0000
0001
0000
0000
0000
0100
0000
0000
0000
1000
0000
0000
0000
0000
0000
0000
0000
0000
0100
0000
0000
0001
0000
0000
0000
0000
0000
0010
0000
0000
0000
0000
0000
,  // measure 5
0100
0000
0010
0000
0001
0000
1000
0000
0001
0000
0100
0000
1000
0000
0000
0000
0000
0000
0110
0000
0000
0110
0000
0000
,  // measure 6
1000
0000
0000
0000
0000
0000
0100
0000
0000
0000
0000
0000
0001
0000
0000
0000
0010
0000
0000
0000
0100
0000
0000
0000
0001
0000
0000
0000
0000
0000
0000
0000
0000
0010
0000
0000
0000
0000
0000
0000
0000
0000
0100
0000
0000
0000
0000
0000
,  // measure 7
0100
0000
0000
0000
0010
0000
0000
0000
0001
0000
0000
0000
1000
0000
0000
0000
0001
0000
0000
0000
0100
0000
0000
0000
1000
0000
0000
0000
0000
0000
0000
0000
0000
0001
0000
0000
0000
0000
0000
0000
0000
0000
0100
0000
0000
0000
0000
0000
,  // measure 8
0010
0000
0000
0001
0000
0000
0100
0000
0010
0000
0000
0100
0000
0000
0010
0000
,  // measure 9
0100
0000
0000
0010
0000
0000
0001
0000
1000
0000
0000
0000
0000
0000
0100
0000
,  // measure 10
0010
0000
0000
0100
0000
0000
0001
0000
0100
0000
0000
0010
0000
0000
0100
0000
,  // measure 11
0010
0000
0000
0001
0000
0000
0100
0000
1000
0000
0000
0000
0000
0000
0100
0000
,  // measure 12
0010
0000
0000
0001
0000
0000
0100
0000
1000
0000
0000
0001
0000
0000
0100
0000
,  // measure 13
0010
0000
0000
0001
0000
0000
1000
0000
0100
0000
0000
0000
0000
0000
0010
0000
,  // measure 14
0001
0000
0000
0100
0000
0000
0010
0000
0001
0000
0000
0100
0000
0000
0010
0000
,  // measure 15
0001
0000
0000
0100
0000
0000
1000
0000
0000
0000
0000
0000
1001
0000
0000
0000
,  // measure 16
1001
0000
0100
0000
0010
0000
0100
0010
0001
0100
0010
0100
1000
0000
0000
0000
,  // measure 17
0010
0000
0001
0000
0100
0000
0001
0000
0100
0000
1000
0000
0100
0000
0000
0010
0000
0000
0100
0000
0000
0000
0000
0000
,  // measure 18
0010
0000
0001
0000
0100
0000
0010
0000
0001
0100
0001
0100
1000
0000
0000
0000
,  // measure 19
0010
0000
0001
0000
1000
0000
0001
0010
0100
0000
0010
0000
0100
0000
0000
0000
,  // measure 20
1000
0000
0000
0000
0100
0000
0000
0000
0001
0000
0000
0000
0010
0000
0000
0000
0000
0000
0001
0000
0000
1000
0000
0000
0100
0000
0000
0000
0000
0000
0010
0000
0000
0100
0000
0000
0001
0000
0000
0000
0000
0000
0000
0000
0000
0000
0000
0000
,  // measure 21
0100
0001
0010
0000
0100
0000
0010
0001
0100
0000
0001
0010
0100
0000
0000
0000
,  // measure 22
1000
0000
0000
0100
0000
0000
0001
0000
0000
0100
0000
0000
0001
0000
0000
0000
0000
0000
0010
0000
0000
0100
0000
0000
0001
0000
0000
0000
0010
0000
0000
0000
0100
0000
0000
0000
0001
0000
0000
0000
0000
0000
0000
0000
0000
0000
0000
0000
,  // measure 23
0100
0001
0010
0000
0001
0000
1000
0000
0001
0000
0100
0000
1000
0000
0000
0000
,  // measure 24
0100
0001
0010
0000
0100
0000
0001
0000
1000
0000
0001
0000
0100
0000
0000
0000
,  // measure 25
0001
0000
1000
0000
0001
0000
0100
0000
0010
0001
0100
0000
1000
0000
0000
0000
,  // measure 26
1000
0000
0000
0000
0100
0000
0000
0000
0001
0000
0000
0000
0100
0000
0000
0000
0001
0000
0000
0000
0010
0000
0000
0000
0100
0000
0000
0001
0000
0000
0010
0000
0000
0000
0000
0000
0100
0000
0000
0000
0000
0000
0000
0000
0000
0000
0000
0000
,  // measure 27
0010
0000
0000
0000
0000
0000
0001
0000
0000
0100
0000
0000
1000
0000
0000
0100
0000
0000
0001
0000
0000
0000
0000
0000
1000
0000
0000
0000
0100
0000
0000
0000
0001
0000
0000
0000
0100
0000
0000
0000
0000
0000
0000
0000
0000
0000
0000
0000
,  // measure 28
0100
0001
1000
0000
0100
0000
0010
0100
0001
0000
0100
0000
0001
0000
0000
0000
,  // measure 29
0010
0000
0001
0000
0100
0000
0010
0000
0100
0001
1000
0000
0100
0000
0000
0000
,  // measure 30
0001
1000
0001
0100
0001
0100
1000
0000
,  // measure 31
0100
0001
1000
0001
0010
0100
0001
0100
0001
0010
0100
0000
0001
0000
0000
0000
,  // measure 32
1001
0000
0000
0010
0000
0000
0001
0000
0100
0000
0000
0010
0000
0000
0001
0000
,  // measure 33
0100
0000
0000
0000
0010
0000
0000
0000
0001
0000
0000
0000
1000
0000
0000
0000
0001
0000
0000
0000
0100
0000
0000
0000
1000
0000
0000
0000
0000
0000
0000
0000
0000
0100
0000
0000
0000
0000
0000
0000
0000
0000
0010
0000
0000
0000
0000
0000
,  // measure 34
0100
0000
0000
0000
0010
0000
0000
0000
0001
0000
0000
0000
1000
0000
0000
0000
0001
0000
0000
0000
0100
0000
0000
0000
1000
0000
0000
0000
0000
0000
0000
0000
0000
0001
0000
0000
0000
0000
0000
0000
0000
0000
0010
0000
0000
0000
0000
0000
,  // measure 35
0100
0000
0000
0000
0010
0000
0000
0000
0001
0000
0000
0000
0100
0000
0000
0000
0000
0000
0010
0000
0000
0000
0000
0000
1000
0000
0000
0000
0000
0000
0000
0000
0000
0001
0000
0000
0000
0000
0000
0000
0000
0000
0010
0000
0000
0000
0000
0000
,  // measure 36
0100
0010
0001
1000
0001
0100
1000
0000
0100
0001
1000
0001
,  // measure 37
0010
0000
0000
0000
0001
0000
0000
0000
0100
0000
0000
0000
0001
0000
0000
0000
0000
0000
0010
0000
0000
0000
0000
0000
1000
0000
0000
0000
0000
0000
0000
0000
0000
0001
0000
0000
0000
0000
0000
0000
0000
0000
0010
0000
0000
0000
0000
0000
,  // measure 38
0100
0000
0000
0000
0000
0000
0010
0000
0000
0000
0000
0000
0100
0000
0000
0000
0001
0000
0000
0000
1000
0000
0000
0000
0100
0000
0000
0000
0000
0000
0000
0000
0000
0010
0000
0000
0000
0000
0000
0000
0000
0000
0001
0000
0000
0000
0000
0000
,  // measure 39
0010
0000
0000
0000
0100
0000
0000
0000
0001
0000
0000
0000
1000
0000
0000
0000
0010
0000
0000
0000
0100
0000
0000
0000
0001
0000
0000
0000
0000
0000
0000
0000
0000
0010
0000
0000
0000
0000
0000
0000
0000
0000
0100
0000
0000
0000
0000
0000
,  // measure 40
0001
0000
0000
0100
0000
0000
0010
0000
0001
0000
0000
0100
0000
0000
0010
0000
,  // measure 41
0001
0000
0000
1000
0000
0000
0100
0000
0010
0000
0000
0001
0000
0000
1000
0000
,  // measure 42
0100
0000
0000
0001
0000
0000
0100
0000
1000
0000
0000
0001
0000
0000
0100
0000
,  // measure 43
0010
0000
0000
0001
0000
0000
0100
0000
1000
0000
0000
0000
0000
0000
0100
0000
,  // measure 44
1000
0000
0000
0001
0000
0000
0100
0000
0010
0000
0000
0001
0000
0000
0100
0000
,  // measure 45
0010
0000
0000
0001
0000
0000
1000
0000
0100
0000
0000
0000
0000
0000
0100
0000
,  // measure 46
0001
0000
0000
1000
0100
0000
0010
0000
0001
0000
0100
1000
0100
0000
0010
0000
,  // measure 47
0100
0000
0001
0010
0100
0000
0010
0000
0001
0000
1000
0000
0100
0000
0000
0000
,  // measure 48
0000
0000
0000
0100
1000
0000
0100
0000
0001
0000
0000
0000
1000
0000
0001
0000
,  // measure 49
0100
0000
0000
0000
0000
0000
0010
0000
0001
0000
1000
0000
0001
0000
0100
0000
0010
0000
1000
0000
0000
0100
0000
0000
,  // measure 50
0001
0000
0000
0000
0000
0000
0000
0000
0000
0001
0000
0000
0100
0000
0000
0000
0000
0000
0010
0000
0000
0000
0000
0000
0001
0000
0000
0000
0100
0000
0000
0000
0010
0000
0000
0000
1000
0000
0000
0000
0100
0000
0000
0000
0001
0000
0000
0000
,  // measure 51
1000
0000
0100
0000
0001
0000
0010
0000
0000
0001
0000
0000
0100
0000
0010
0000
0001
0000
1000
0000
0001
0000
0100
0000
,  // measure 52
1000
0000
0000
0100
0000
0000
0001
0000
0000
0010
0000
0000
0000
0000
0000
0000
0010
0000
0001
0000
0100
0000
0001
0000
,  // measure 53
0100
0001
1000
0100
0000
0001
0100
0010
,  // measure 54
0001
0000
1000
0000
0001
0000
0100
0000
0000
0000
0001
0100
0001
0000
1000
0100
,  // measure 55
0001
0000
0010
0000
0000
0001
0100
0000
,  // measure 56
1000
0000
0100
0001
0010
0000
0001
0100
1000
0000
0100
0000
0010
0000
0001
0000
,  // measure 57
0100
0000
0000
0000
0000
0000
0000
0000
0000
0001
0000
0000
0010
0000
0000
0000
0000
0000
0100
0000
0000
0000
0000
0000
0001
0000
0000
0000
0100
0000
0000
0000
0010
0000
0000
0000
0001
0000
0000
0000
0000
0000
0100
0000
0000
0000
0000
0000
,  // measure 58
1000
0000
0010
0100
0001
1000
0000
0100
0001
0000
0000
0001
0100
0000
0010
0000
,  // measure 59
1000
0000
0000
0000
0001
0000
0000
0000
0100
0000
0000
0000
1000
0000
0000
0000
0000
0000
0000
0000
0000
0000
0000
0000
0100
0000
0000
0000
0000
0000
0001
0000
0000
1000
0000
0000
0100
0000
0000
0001
0000
0000
0010
0000
0000
0000
0000
0000
,  // measure 60
0100
0000
0000
0000
0000
0000
0000
0000
0000
0000
0000
0000
0010
0000
0000
0000
0000
0000
0000
0000
0000
0100
0000
0000
0001
0000
0000
0000
0010
0000
0000
0000
0001
0000
0000
0000
1000
0000
0000
0000
0000
0000
0010
0000
0000
0000
0000
0000
,  // measure 61
1000
0000
0000
0000
0000
0000
0100
0000
0000
0000
0010
0000
0001
0000
0100
0000
0010
0000
0001
0000
0000
0100
0000
0000
,  // measure 62
1000
0001
0100
0010
0000
0001
0100
1000
,  // measure 63
0100
0000
0000
0001
1000
0000
0100
0000
0010
0000
0000
0001
0100
0000
0001
0000
,  // measure 64
0010
0000
0100
0000
0001
1000
0100
0000
0001
0000
0010
0000
0000
0000
1000
0100
,  // measure 65
0001
1000
0100
0000
0001
0000
0000
0000
0010
0100
0001
0000
0010
0001
0100
0000
,  // measure 66
0010
0000
0000
0000
0010
0100
0001
0000
1000
0100
0001
0000
0010
0100
0001
0000
,  // measure 67
1000
0000
0000
0000
0000
0000
0100
0000
0001
0000
0010
0000
1000
0100
0001
0000
,  // measure 68
0010
0000
0000
0001
0000
0000
0100
0000
0000
0010
0000
0000
0100
0000
1000
0000
0001
0000
0010
0000
0100
0000
0010
0000
,  // measure 69
1000
0100
0001
0010
0100
1000
0100
0010
0001
1000
0001
0100
,  // measure 70
1000
0000
0000
0000
0000
0000
0000
0000
0000
0001
0000
0000
0010
0000
0000
0000
0000
0000
0010
0000
0000
0000
0000
0000
0100
0000
0000
0000
0010
0000
0000
0000
0001
0000
0000
0000
1000
0000
0000
0000
0001
0000
0000
0000
0100
0000
0000
0000
,  // measure 71
1000
0000
0000
0000
0100
0000
0001
0000
1000
0100
0000
0000
0100
0000
0010
0000
,  // measure 72
0100
0001
0010
0001
0000
0000
0001
0000
0001
0000
0000
0100
0000
0000
0010
0000
,  // measure 73
0010
0000
0000
0001
0000
0000
0100
0000
1000
0000
0000
0000
0000
0000
0100
0000
,  // measure 74
0010
0000
0000
0001
0000
0000
0100
0000
1000
0000
0000
0001
0000
0000
0100
0000
,  // measure 75
0010
0000
0000
0001
0000
0000
0100
0000
1000
0000
0000
0000
0000
0000
0100
0000
,  // measure 76
1000
0000
0000
0100
0000
0000
0010
0000
0001
0000
0000
0100
0000
0000
0010
0000
,  // measure 77
0100
0000
0000
0010
0000
0000
0100
0000
1000
0000
0000
0000
0001
0000
0010
0000
,  // measure 78
0100
0000
0000
0010
0000
0000
0001
0000
0100
0000
0000
1000
0000
0000
0100
0000
,  // measure 79
0010
0000
0000
0001
0000
0000
0100
0000
0010
0000
0000
0001
0000
0000
0100
0000
,  // measure 80
1001
0000
0000
0000
;
