#VERSION:0.83;
#TITLE:lucky star;
#SUBTITLE:;
#ARTIST:The Deep;
#TITLETRANSLIT:;
#SUBTITLETRANSLIT:;
#ARTISTTRANSLIT:;
#GENRE:;
#ORIGIN:;
#CREDIT:;
#BANNER:;
#BACKGROUND:;
#PREVIEWVID:;
#JACKET:;
#CDIMAGE:;
#DISCIMAGE:;
#LYRICSPATH:;
#CDTITLE:;
#MUSIC:lucky star.ogg;
#OFFSET:0.000000;
#SAMPLESTART:100.059883;
#SAMPLELENGTH:12.000000;
#SELECTABLE:YES;
#BPMS:0.000=133.000;
#STOPS:0.000=0.900;
#DELAYS:;
#WARPS:;
#TIMESIGNATURES:0.000=4=4;
#TICKCOUNTS:0.000=4;
#COMBOS:0.000=1;
#SPEEDS:0.000=1.000=0.000=0;
#SCROLLS:0.000=1.000;
#FAKES:;
#LABELS:0.000=Song Start;
#BGCHANGES:;
#KEYSOUNDS:;
#ATTACKS:
;

//---------------dance-single - ----------------
#NOTEDATA:;
#CHARTNAME:;
#STEPSTYPE:dance-single;
#DESCRIPTION:;
#CHARTSTYLE:;
#DIFFICULTY:Hard;
#METER:13;
#RADARVALUES:0.542473,0.774565,0.295894,0.018493,0.391444,616.000000,568.000000,48.000000,3.000000,0.000000,0.000000,0.000000,0.000000,0.000000,0.542473,0.774565,0.295894,0.018493,0.391444,616.000000,568.000000,48.000000,3.000000,0.000000,0.000000,0.000000,0.000000,0.000000;
#CREDIT:;
#NOTES:
// measure 0
0000
0000
0000
0000
,  // measure 1
0000
0000
0000
0000
,  // measure 2
0000
0000
0000
0000
,  // measure 3
0000
0000
0000
0000
,  // measure 4
1000
0000
0000
0001
0000
0000
0010
0000
0000
0100
0000
0000
0001
0000
0000
1000
,  // measure 5
0000
0000
0001
0000
0000
0010
0000
0000
0001
0000
0000
1000
0000
0000
0010
0000
,  // measure 6
0100
0000
0000
0001
0000
0000
0010
0000
0000
0100
0000
0000
0001
0000
0000
1000
,  // measure 7
0010
0000
0001
0100
0001
0010
1000
0000
0100
0000
0010
0001
0100
0000
1000
0000
,  // measure 8
0100
0000
0100
0000
0001
0000
0100
0010
,  // measure 9
0001
1000
0001
0100
1000
0000
0000
0000
,  // measure 10
0010
0001
0100
0001
1000
0100
0000
0010
,  // measure 11
0000
0000
0000
0000
0000
0000
0100
0001
1000
0000
0010
0000
0100
0000
0001
0000
,  // measure 12
1000
0010
0001
0100
1000
0000
0010
0001
,  // measure 13
0100
0010
0001
0100
1000
0000
0000
0000
,  // measure 14
0001
0100
0010
0001
0100
1000
0000
0100
,  // measure 15
0000
0000
0101
0000
0000
0000
1100
0000
0000
0000
0101
0000
0000
0000
1000
0100
,  // measure 16
0001
0100
0010
0100
0001
0000
1100
0000
0101
0000
0101
0000
0101
0000
1000
0100
,  // measure 17
0001
1000
0001
0010
0100
0000
0001
1000
0100
0000
0001
0000
1000
0000
0100
0000
,  // measure 18
0001
0000
0010
0001
0100
0000
0100
0001
,  // measure 19
1000
0100
0000
0001
0100
0001
1000
0100
,  // measure 20
0101
0000
0101
0000
0110
0000
0001
0010
,  // measure 21
0001
0000
0100
0000
0010
0000
0100
0001
1000
0000
0100
0000
0001
0000
0000
0000
,  // measure 22
0010
0001
1000
0001
0100
0010
1001
0000
,  // measure 23
0010
0001
1000
0001
0100
0010
1001
0000
,  // measure 24
0101
0000
1000
0000
0100
0000
0010
0100
0000
1000
0000
0100
0000
0000
0000
0000
,  // measure 25
0001
0000
0100
0000
0010
0000
0100
0001
0000
1000
0000
0100
0001
0000
0010
0000
,  // measure 26
0100
0000
1000
0000
0001
0000
0100
0010
0000
0001
0000
0100
0000
0000
0000
0000
,  // measure 27
0010
0000
0001
0000
0100
0000
1000
0001
0000
0100
0000
0010
0100
0001
0100
0000
,  // measure 28
0100
0000
0010
0000
0001
0000
1000
0100
0000
0001
0000
0010
0000
0000
0000
0000
,  // measure 29
0100
0000
0010
0000
0001
0000
1000
0100
0000
0001
0000
0010
0000
0000
0000
0010
,  // measure 30
0100
0000
0001
0000
0100
0000
0001
0010
0000
0100
0000
0001
0000
0000
0000
0000
,  // measure 31
0001
0100
0001
0100
1000
0001
0100
0010
,  // measure 32
1001
0000
0000
0001
0000
0000
0010
0000
0000
0100
0000
0000
0010
0000
0000
0001
,  // measure 33
0000
0000
0100
0000
0000
0010
0000
0000
0100
0000
0001
0000
0100
0000
1000
0000
,  // measure 34
0001
0000
0000
0010
0000
0000
0100
0000
0000
1000
0000
0000
0010
0000
0000
0100
,  // measure 35
0000
0000
0001
0000
0000
1000
0000
0000
0100
0000
0001
0000
0010
0000
0001
0000
,  // measure 36
0100
0000
0000
0010
0000
0000
0001
0000
0000
1000
0000
0000
0100
0000
0000
0001
,  // measure 37
0000
0000
0010
0000
0000
0100
0000
0000
0100
0000
0001
0000
1000
0000
0100
0000
,  // measure 38
0010
0000
0000
0100
0000
0000
0001
0000
0000
1000
0000
0000
0100
0000
0000
0001
,  // measure 39
0100
0010
0100
0001
0001
0100
0001
1000
0100
0000
0001
0000
0100
0000
1000
0000
,  // measure 40
0110
0000
0001
0100
0011
0000
0100
0010
,  // measure 41
0100
1000
0001
0100
1001
0000
0100
1000
,  // measure 42
0101
0000
0010
0100
0101
0000
1000
0100
,  // measure 43
0001
0000
0100
0000
0010
0000
0001
0000
1000
0000
0001
0000
0100
0001
0010
0000
,  // measure 44
1000
0000
0100
0010
1001
0000
0010
0001
,  // measure 45
1000
0001
0100
0010
1001
0000
0100
0010
,  // measure 46
1001
0000
0001
0100
0011
0000
0100
1000
,  // measure 47
0000
0000
1000
0000
0100
0000
0010
0000
0100
0001
1000
0100
0001
1000
0100
0000
,  // measure 48
0100
0001
0100
0001
1001
0000
0110
0000
,  // measure 49
0010
0100
0010
0100
0110
0000
1001
0000
,  // measure 50
0110
0000
0000
0000
1000
0001
0100
0010
,  // measure 51
1001
0000
0000
0110
0000
0000
0101
0000
0110
0000
0010
0000
0001
0000
0000
0000
,  // measure 52
0100
0010
1001
0000
0110
0000
1001
0000
,  // measure 53
0000
0100
0001
0010
0001
0100
1000
0000
,  // measure 54
0100
0000
0110
0001
1000
0001
0100
0010
,  // measure 55
0101
0000
0000
0110
0000
0000
0101
0000
0110
0000
0100
0000
1001
0000
0000
0000
,  // measure 56
1000
0000
0100
0000
0001
0000
0010
0100
0000
0001
0000
1000
0000
0000
0000
0000
,  // measure 57
0001
0000
0100
0000
0010
0000
0001
0100
0000
0001
0000
1000
0010
0000
0100
0001
,  // measure 58
0010
0000
0001
0000
0100
0000
0001
0010
0000
0100
0000
1000
0000
0000
0000
0000
,  // measure 59
0001
0000
0100
0000
0010
0000
0001
0100
0000
0010
0000
0100
1000
0001
0100
0000
,  // measure 60
0001
0000
0100
0000
0010
0000
0100
0001
0000
0100
0000
1000
0000
0000
0000
0000
,  // measure 61
0001
0000
0100
0000
0010
0000
0001
0100
0000
1000
0000
0001
0100
0010
0001
1000
,  // measure 62
0100
0000
0010
0000
0100
0000
0001
0010
0000
1000
0000
0001
0000
0000
0000
0000
,  // measure 63
0100
0010
0001
1000
0001
0100
1000
0000
,  // measure 64
0010
0000
0000
0001
0000
0000
1000
0000
0000
0100
0000
0000
0010
0000
0000
0001
,  // measure 65
0000
0000
0100
0000
0000
0010
0000
0000
0100
0000
0001
0000
0100
0000
1000
0000
,  // measure 66
0010
0000
0000
0001
0000
0000
0100
0000
0000
0001
0000
0000
1000
0000
0000
0100
,  // measure 67
0000
0000
0001
0000
0000
0010
0000
0000
0100
0000
0001
0000
1000
0000
0100
0000
,  // measure 68
0001
0000
0000
0010
0000
0000
0100
0000
0000
0001
0000
0000
1000
0000
0000
0100
,  // measure 69
0000
0000
0001
0000
0000
0010
0000
0000
0100
0000
0001
0000
0010
0000
0100
0000
,  // measure 70
0001
0000
0000
0010
0000
0000
0001
0000
0000
0100
0000
0000
0010
0000
0000
0001
,  // measure 71
0100
0001
0100
0010
0001
1000
0001
0100
,  // measure 72
1000
0000
0000
0100
0000
0000
0010
0000
0000
0000
0100
0000
0001
0000
1000
0000
,  // measure 73
0001
1000
0001
0100
0000
0000
0000
0000
,  // measure 74
0010
0000
0000
0001
0000
0000
1000
0000
0000
0000
0010
0000
0001
0000
1000
0000
,  // measure 75
0001
0100
0010
1000
0001
0000
0000
0000
,  // measure 76
1001
0000
0000
0110
0000
0000
0101
0000
0000
0000
0100
0000
0010
0000
0001
0000
,  // measure 77
1000
0001
0100
1000
0000
0000
0000
0000
,  // measure 78
0101
0000
0000
1100
0000
0000
0101
0000
0000
0000
0100
0000
0010
0000
0001
0000
,  // measure 79
0100
0001
1000
0100
0020
0000
0130
0000
,  // measure 80
0100
0000
0000
0001
0000
0000
1000
0000
0000
0100
0000
0000
0001
0000
0000
0010
,  // measure 81
0000
0000
0100
0000
0000
0001
0000
0000
1000
0000
0100
0000
0001
0000
0010
0000
,  // measure 82
0100
0000
0000
0001
0000
0000
0010
0000
0000
0100
0000
0000
0001
0000
0000
1000
,  // measure 83
0000
0000
0100
0000
0000
0001
0000
0000
0010
0000
0100
0000
0001
0000
1000
0000
,  // measure 84
0100
0000
0000
0001
0000
0000
0010
0000
0000
0100
0000
0000
0001
0000
0000
1000
,  // measure 85
0000
0000
0100
0000
0000
0001
0000
0000
0010
0000
0100
0000
0001
0000
0010
0000
,  // measure 86
0100
0000
0000
0001
0000
0000
0100
0000
0000
0010
0000
0000
0001
0000
0000
0100
,  // measure 87
0001
0100
0010
0001
1000
0001
0100
1000
,  // measure 88
2002
0000
0000
0000
,  // measure 89
0000
0000
0000
3003
;
