#TITLE:lucid dreams;
#SUBTITLE:;
#ARTIST:Juice WRLD;
#TITLETRANSLIT:;
#SUBTITLETRANSLIT:;
#ARTISTTRANSLIT:;
#GENRE:;
#CREDIT:;
#BANNER:;
#BACKGROUND:;
#LYRICSPATH:;
#CDTITLE:;
#MUSIC:Lucid Dreams.ogg;
#OFFSET:0.000000;
#SAMPLESTART:100.059883;
#SAMPLELENGTH:12.000000;
#SELECTABLE:YES;
#BPMS:0.000000=168.000000
,57.000000=169.000000
,365.000000=168.000000
,429.000000=169.000000
,461.000000=166.000000
,491.000000=170.000000
,503.000000=168.000000
,602.000000=84.000000
,603.000000=168.000000
;
#STOPS:0.000000=0.200000,
57.000000=2.500000,
135.000000=0.750000,
167.000000=0.850000,
243.000000=0.525000,
258.000000=0.800000,
272.000000=0.800000,
304.000000=0.500000,
310.000000=0.600000,
477.000000=0.800000,
503.000000=1.400000,
515.000000=1.000000,
540.000000=3.000000
;
#BGCHANGES:;
#KEYSOUNDS:;
#ATTACKS:;

//---------------dance-single - ----------------
#NOTES:
     dance-single:
     :
     Hard:
     12:
     0.473189,0.565282,0.070829,0.199989,0.187490,795.000000,778.000000,17.000000,48.000000,0.000000,0.000000,0.473189,0.565282,0.070829,0.199989,0.187490,795.000000,778.000000,17.000000,48.000000,0.000000,0.000000:
// measure 0
0000
0000
0000
0000
,  // measure 1
0000
0000
0000
0000
,  // measure 2
0000
0000
0000
0000
,  // measure 3
0000
0000
0000
0000
,  // measure 4
1000
0000
0000
0001
0000
0100
0000
0000
,  // measure 5
0010
0000
0000
0001
0000
0100
0010
0000
,  // measure 6
0100
0000
0000
0010
0000
0100
0000
0000
,  // measure 7
2000
0000
0200
3300
,  // measure 8
0100
0010
0100
0001
0000
1000
0100
0001
,  // measure 9
0000
0001
0000
0000
0100
0000
0000
0001
,  // measure 10
0000
0000
0000
0010
0000
0100
0000
0000
,  // measure 11
2000
0000
0200
3300
,  // measure 12
0010
0000
0000
0100
0000
0000
0001
0000
,  // measure 13
1000
0000
0000
0100
0000
0000
0000
0000
,  // measure 14
0010
0000
1000
0000
0200
0000
0300
0000
1001
0000
0000
0000
0100
0000
0000
0010
,  // measure 15
0000
0100
0000
0000
0001
0000
0000
0100
0000
0010
0000
0000
0001
0000
0000
1000
,  // measure 16
0000
0000
0000
0000
0000
0000
0000
0000
0001
0000
0000
0000
0010
0000
0000
0001
,  // measure 17
0000
0100
0000
0000
1000
0000
0000
0001
0000
0100
0000
0000
0010
0000
0000
0001
,  // measure 18
0000
0000
0000
0010
0001
1000
0100
0000
,  // measure 19
0010
0000
0100
0000
0001
0000
0000
0100
0000
0010
0000
0000
1000
0000
0000
0001
,  // measure 20
0000
0100
0000
0000
0010
0000
0000
0001
0000
0100
0000
0000
1000
0000
0000
0001
,  // measure 21
0000
0100
0000
0000
0010
0000
0000
0001
0000
0100
0000
0000
0010
0000
0000
0000
,  // measure 22
0001
0000
0110
0000
0000
0000
0100
0010
,  // measure 23
0001
0001
0000
0100
1000
0000
0010
0001
,  // measure 24
0100
0001
0000
1000
0100
0000
0010
0001
,  // measure 25
1000
0001
0100
0010
0000
0001
1000
0001
,  // measure 26
0100
1000
0100
0000
0000
0000
0100
0010
,  // measure 27
0001
0100
0000
0100
0001
0010
0100
0001
,  // measure 28
1000
0001
0000
0100
0010
0001
0100
0001
,  // measure 29
0100
1000
0001
0000
0100
0000
0000
0000
,  // measure 30
0000
0000
0000
0000
0001
0000
0000
0000
1001
0000
0000
0000
0001
0000
0000
0100
,  // measure 31
0000
0010
0000
0000
0001
0000
0000
0100
0000
0010
0000
0000
0001
0000
0000
1000
,  // measure 32
0000
0000
0000
0000
0100
0000
0000
0000
0010
0000
0000
0000
0010
0000
0000
0100
,  // measure 33
0000
0001
0000
0000
0100
0000
0000
0100
0000
1000
0000
0000
0100
0000
0010
0000
,  // measure 34
0100
0000
0001
0000
1000
0000
0000
0100
0000
0001
0000
0000
0010
0000
0000
0100
,  // measure 35
0000
0001
0000
0000
0010
0000
0000
0001
0000
0100
0000
0000
0001
0000
0000
0100
,  // measure 36
0000
0010
0000
0000
0001
0000
0000
0100
0000
1000
0000
0000
0001
0000
0000
0100
,  // measure 37
0000
0010
0000
0000
0001
0000
0000
0000
0100
0000
0000
0000
0110
0000
0000
0000
,  // measure 38
0000
0000
0100
0010
0100
0001
0000
1000
,  // measure 39
0100
0000
0010
0001
0100
1000
0000
0100
,  // measure 40
0001
0000
0001
0010
0100
0001
0100
1000
,  // measure 41
0100
0000
0010
0100
0001
1000
0001
0010
,  // measure 42
0001
1000
0000
0010
0100
0010
0001
1000
,  // measure 43
0001
0100
0000
0010
0100
0010
0001
0100
,  // measure 44
0001
0100
0001
0000
0100
0000
0000
0000
,  // measure 45
0000
0000
0020
0000
0000
0230
0000
0002
,  // measure 46
0300
0000
0020
0003
0000
0230
0000
0020
,  // measure 47
0300
0000
0002
0030
0000
2003
0000
3200
,  // measure 48
0000
0000
0320
0000
0000
0230
0000
0002
,  // measure 49
0000
0300
0020
0000
0003
0200
0030
0320
,  // measure 50
0000
0000
0002
0000
0030
2000
0003
0200
,  // measure 51
3000
0020
0000
0000
,  // measure 52
0000
0000
0000
0330
0000
1001
0000
0000
,  // measure 53
0000
0000
0200
0000
0000
0020
0300
0002
,  // measure 54
0000
0030
2000
0003
0000
0200
3000
0320
,  // measure 55
0000
0000
0002
0000
0030
2003
0000
3200
,  // measure 56
0000
0000
0020
0300
0000
0032
0000
0020
,  // measure 57
0000
0003
0002
0000
0033
0200
0000
2000
,  // measure 58
0000
0300
0020
0000
3000
0230
0000
0002
,  // measure 59
0000
0000
0000
0000
0300
2000
0000
0000
,  // measure 60
3003
0000
0001
0010
0100
0001
1000
0000
,  // measure 61
0001
0100
0001
0100
0010
0001
0100
0001
,  // measure 62
0100
0010
0001
1000
0001
0100
0010
0001
,  // measure 63
0010
1000
0001
0010
0100
0100
0001
0010
,  // measure 64
0001
0010
1000
0001
0100
0001
0010
0100
,  // measure 65
0100
0010
0001
1000
0001
0100
0010
0001
,  // measure 66
0100
0001
0100
0010
0001
1000
0001
0100
,  // measure 67
0010
0001
0100
0001
0100
0001
0010
0100
,  // measure 68
1000
0010
0001
0100
0010
0001
0100
0001
,  // measure 69
0100
0010
0001
0100
0001
0100
0010
0001
,  // measure 70
0100
0001
0100
0010
0001
0100
0001
0100
,  // measure 71
0010
0001
1000
0001
0100
0010
0001
0100
,  // measure 72
0010
0100
0001
1000
0001
0010
0001
0100
,  // measure 73
0010
0001
0100
0010
0001
0100
0001
0100
,  // measure 74
0010
0001
0100
0001
0100
0010
1001
0000
,  // measure 75
0010
0100
0101
0000
0100
0010
1001
0000
,  // measure 76
0000
0000
0100
1000
0001
0010
0100
0010
,  // measure 77
0001
0100
0001
0100
1000
0000
0100
0010
,  // measure 78
0100
0001
0010
0001
0100
0010
0001
0100
,  // measure 79
0001
0100
1000
0000
0001
0100
0001
0100
,  // measure 80
1000
0100
0000
0010
0100
0001
1000
0001
,  // measure 81
0010
0000
0000
0100
0010
0001
1000
0001
,  // measure 82
0100
0010
0000
0001
0000
0000
0100
0000
,  // measure 83
0000
0000
0100
0001
0100
0010
0001
1000
,  // measure 84
0001
0100
0000
0000
0001
0000
0100
0000
,  // measure 85
0000
0000
0001
0100
0010
0100
0001
0000
,  // measure 86
0010
0001
0100
0001
0100
0000
1000
0000
,  // measure 87
0000
0000
0001
0100
0001
1000
0100
0000
,  // measure 88
0001
1000
0001
0100
0001
0000
0100
0000
,  // measure 89
0000
0000
0011
0000
0100
0001
0101
0000
,  // measure 90
0010
0100
0101
0000
2200
0000
3300
0000
,  // measure 91
0110
0000
0100
0000
0000
0010
0000
0100
,  // measure 92
0000
0000
0001
0000
0000
0100
0000
0000
,  // measure 93
0000
0000
0000
0000
0100
0000
0000
0000
0010
0000
0000
0000
0100
0000
0000
0001
,  // measure 94
0000
0010
0000
0000
0100
0000
0000
0001
0000
0010
0000
0000
1000
0000
0000
0100
,  // measure 95
0000
0000
0010
0000
0000
0010
0000
0100
,  // measure 96
0000
0000
0001
0000
0000
1000
0000
0000
,  // measure 97
0000
0000
0000
0000
0100
0000
0000
0000
0010
0000
0000
0000
0100
0000
0000
0001
,  // measure 98
0000
0010
0000
0000
0100
0000
0000
1000
0000
0100
0000
0000
0010
0000
0000
0100
,  // measure 99
0000
0000
0010
0000
0100
0010
0001
1000
,  // measure 100
0100
0010
0000
0000
0100
0010
0001
0100
,  // measure 101
0001
0100
0000
0000
1000
0100
0001
0100
,  // measure 102
0001
0100
0010
0000
0100
0000
0110
0000
,  // measure 103
0000
0000
0100
0010
0100
0001
0010
0001
,  // measure 104
0100
0001
0000
0000
0100
0000
0010
0000
,  // measure 105
0010
0200
0000
0000
,  // measure 106
0000
0002
0000
0000
,  // measure 107
0303
0000
0000
0000
1000
0000
0000
0000
1001
0000
0000
0000
0100
0000
0000
0001
,  // measure 108
0000
0010
0000
0000
0100
0000
0000
1000
0000
0100
0000
0000
0001
0000
0000
0010
,  // measure 109
0000
0000
0000
0000
0000
0000
0000
0000
1000
0000
0000
0000
0001
0000
0000
0001
,  // measure 110
0000
0100
0000
0000
0010
0000
0000
0010
0000
0100
0000
0000
0001
0000
0000
0010
,  // measure 111
0000
0000
0000
0000
0001
0000
1000
0000
0001
0000
0100
0000
0010
0000
0000
0001
,  // measure 112
0000
0010
0000
0000
0100
0000
0000
1000
0000
0100
0000
0000
0001
0000
0000
0010
,  // measure 113
0000
0100
0000
0000
0001
0000
0000
0100
0000
0010
0000
0000
0100
0000
0000
0001
,  // measure 114
0000
0010
0000
0000
0100
0000
0000
0010
0000
0100
0000
0000
0001
0000
0000
0000
,  // measure 115
0100
0000
0110
0000
0000
0000
0100
0010
,  // measure 116
0100
1000
0000
0100
0001
0000
0010
0001
,  // measure 117
0100
1000
0000
0100
0001
0000
0010
0001
,  // measure 118
0100
0001
0100
1000
0000
0010
0001
0100
,  // measure 119
0001
0100
1000
0100
0001
0010
0000
0100
,  // measure 120
0001
1000
0100
0001
0100
0001
0010
0000
,  // measure 121
0000
0100
0001
1000
0001
0010
0100
0000
,  // measure 122
0010
0000
0000
0100
,  // measure 123
1001
0000
0000
0000
0010
0000
0000
0100
0000
0001
0000
0000
0010
0000
0000
0100
,  // measure 124
0000
1000
0000
0000
0010
0000
0000
0100
0000
0000
0000
0000
0000
0000
0000
0000
,  // measure 125
0010
0000
0000
0000
0100
0000
0000
0001
0000
1000
0000
0000
0100
0000
0010
0000
,  // measure 126
0100
0000
0001
0000
0010
0000
0000
0100
0000
0010
0000
0000
1000
0000
0000
0001
,  // measure 127
0000
0010
0000
0000
0010
0000
0000
0100
0000
0001
0000
0000
0010
0000
0000
0100
,  // measure 128
0000
0001
0000
0000
1000
0000
0000
0100
0000
0001
0000
0000
1000
0000
0000
0000
,  // measure 129
0000
0000
0000
0000
0010
0100
0001
1000
,  // measure 130
0000
0100
0001
0000
0010
0001
0100
1000
,  // measure 131
0000
0010
0100
0000
0100
0010
0001
1000
,  // measure 132
0001
0100
0000
0010
0001
0100
0001
0100
,  // measure 133
1000
0000
0000
0000
0010
0001
0100
1000
,  // measure 134
0000
0100
0010
0001
0100
0001
0100
1000
,  // measure 135
0000
0000
0100
0001
1000
0001
0010
0100
,  // measure 136
0000
0001
0100
0001
1000
0001
0010
0100
,  // measure 137
0000
0010
0100
0001
1000
0001
0010
0100
,  // measure 138
0000
0100
0010
0000
,  // measure 139
0010
0100
0010
0001
1000
0001
0100
0010
,  // measure 140
0000
0001
0000
0000
0100
0000
0000
0000
,  // measure 141
0010
0001
1000
0001
0100
0000
0010
0001
,  // measure 142
1000
0001
0100
0000
1000
0000
0000
0000
,  // measure 143
0010
0100
0001
0100
0010
0001
1000
0001
,  // measure 144
0100
0010
0001
0100
0001
0100
0010
0001
,  // measure 145
0100
0001
0100
0010
0001
1000
0001
0100
,  // measure 146
0010
0001
0100
0001
0100
0010
0001
0100
,  // measure 147
0001
0100
0010
0001
0100
0001
0100
0010
,  // measure 148
0001
0100
0001
0100
0010
0001
1000
0001
,  // measure 149
0100
0010
0001
0100
0001
0100
0010
0001
,  // measure 150
1000
0001
0100
0010
0200
0000
0310
0000
;
