#VERSION:0.83;
#TITLE:low rise jeans;
#SUBTITLE:;
#ARTIST:Demi Lovato;
#TITLETRANSLIT:;
#SUBTITLETRANSLIT:;
#ARTISTTRANSLIT:;
#GENRE:;
#ORIGIN:;
#CREDIT:;
#BANNER:;
#BACKGROUND:;
#PREVIEWVID:;
#JACKET:;
#CDIMAGE:;
#DISCIMAGE:;
#LYRICSPATH:;
#CDTITLE:;
#MUSIC:Low Rise Jeans.ogg;
#OFFSET:0.000000;
#SAMPLESTART:100.059883;
#SAMPLELENGTH:12.000000;
#SELECTABLE:YES;
#BPMS:0.000=114.000;
#STOPS:0.000=0.350;
#DELAYS:;
#WARPS:;
#TIMESIGNATURES:0.000=4=4;
#TICKCOUNTS:0.000=4;
#COMBOS:0.000=1;
#SPEEDS:0.000=1.000=0.000=0;
#SCROLLS:0.000=1.000;
#FAKES:;
#LABELS:0.000=Song Start;
#BGCHANGES:;
#KEYSOUNDS:;
#ATTACKS:
;

//---------------dance-single - ----------------
#NOTEDATA:;
#CHARTNAME:;
#STEPSTYPE:dance-single;
#DESCRIPTION:;
#CHARTSTYLE:;
#DIFFICULTY:Hard;
#METER:15;
#RADARVALUES:0.741176,0.727140,0.043639,0.000000,0.964914,1070.000000,1061.000000,9.000000,0.000000,0.000000,0.000000,0.000000,0.000000,0.000000,0.741176,0.727140,0.043639,0.000000,0.964914,1070.000000,1061.000000,9.000000,0.000000,0.000000,0.000000,0.000000,0.000000,0.000000;
#CREDIT:;
#NOTES:
// measure 0
0000
0000
0000
0000
,  // measure 1
0000
0000
0000
0000
,  // measure 2
0000
0000
0000
0000
,  // measure 3
0000
0000
0000
1001
,  // measure 4
0100
0000
0010
0001
0000
0100
0010
0000
1000
0001
0100
0000
0010
0000
0100
0001
,  // measure 5
0010
0000
0100
0001
0000
0010
0100
0000
0001
1000
0100
0000
0001
0000
0010
0100
,  // measure 6
0001
0000
1000
0100
0000
0001
0010
0000
0100
0010
0100
0000
0001
0000
1000
0100
,  // measure 7
0001
0000
0100
0010
0000
0100
1000
0000
0100
0010
0001
0000
0100
0000
0010
0001
,  // measure 8
0100
0000
0010
0100
0001
1000
0100
0000
0010
0100
0001
0000
0100
0000
0010
0100
,  // measure 9
0001
0000
0100
0001
0010
0001
0100
0000
0001
0010
0100
0000
1000
0000
0100
0001
,  // measure 10
0010
0000
0100
0010
0001
0100
0001
0000
1000
0100
0010
0000
0100
0000
0010
0100
,  // measure 11
0001
0000
0100
0001
0010
0001
0100
0000
1000
0100
0001
0000
0010
0000
0100
0001
,  // measure 12
0010
0000
0100
0001
0010
1000
0100
0000
0001
0010
0100
0000
0001
0000
0100
0010
,  // measure 13
0100
0000
0100
0001
0010
0001
0100
0000
0001
0000
0100
0000
1000
0000
0100
0001
,  // measure 14
0010
0000
0100
0001
1000
0001
0010
0000
0100
0001
0010
0000
0010
0000
0001
1000
,  // measure 15
0100
0000
0100
0001
0010
0100
0001
0000
1000
0100
0001
0000
0010
0000
0100
0001
,  // measure 16
0010
0100
0001
1000
0100
0010
0100
0000
0100
0010
0001
0000
1000
0000
0100
0001
,  // measure 17
0010
0000
0100
0001
1000
0001
0010
0000
1000
0100
0001
0000
0010
0000
0100
0001
,  // measure 18
0010
1000
0100
0001
0100
0010
1000
0000
0100
0001
0010
0000
0010
0000
0001
0100
,  // measure 19
1000
0010
0100
0010
0001
1000
0100
0000
0010
0100
0001
0000
1000
0000
0100
0001
,  // measure 20
0010
0000
0100
0001
0010
0000
0100
0010
,  // measure 21
0001
0100
0001
0100
1000
0000
0001
0100
,  // measure 22
0010
0000
1000
0001
0100
0000
0010
0001
,  // measure 23
0100
0000
1000
0000
0000
0000
0100
0000
0000
0000
0000
0100
0001
0000
0010
0000
,  // measure 24
0100
0000
0010
0100
0000
0010
1000
0000
0001
0010
0100
0000
0001
0000
0010
0100
,  // measure 25
0001
0000
1000
0100
0000
0001
0010
0000
0100
0001
1000
0000
0100
0000
0010
0100
,  // measure 26
0001
0000
1000
0100
0000
0001
0010
0000
0110
0000
0000
0000
0000
0000
0100
0001
,  // measure 27
1000
0000
0010
0100
0001
0010
0100
0001
1000
0100
0001
0000
1000
0100
0001
0100
,  // measure 28
0001
0000
0010
0100
0000
0001
1000
0000
0100
0001
0010
0000
0100
0000
0100
0001
,  // measure 29
1000
0000
0100
0010
0000
0100
0001
0000
1000
0010
0100
0000
0010
0000
0100
0001
,  // measure 30
1000
0000
0100
0010
0000
0010
0100
0000
1001
0000
0000
0000
0000
0000
0010
0100
,  // measure 31
0001
0000
0010
0100
0010
0001
1000
0100
0001
0010
0100
0000
0010
0100
0001
1000
,  // measure 32
0001
0010
0100
0001
1000
0100
0001
0010
0100
0001
0010
0000
1000
0100
0001
0100
,  // measure 33
0001
0010
0001
0100
0010
0100
0010
0100
0001
1000
0100
0000
0010
0100
0001
1000
,  // measure 34
0001
0010
0100
0001
0010
0100
0010
0100
1000
0000
0000
0000
0000
0000
0100
0001
,  // measure 35
0010
0000
0100
0001
0000
0010
0100
0001
1000
0100
0001
0000
0100
0010
0001
0100
,  // measure 36
1000
0010
0001
1000
0100
0010
0100
0001
1000
0010
0100
0000
0100
0010
0001
0100
,  // measure 37
0010
0001
1000
0001
0100
0010
0001
0100
1000
0010
0100
0000
0010
0100
0001
1000
,  // measure 38
0001
0010
0100
0001
0100
0001
0010
0100
0001
1000
0001
0000
0100
0000
0010
0100
,  // measure 39
0001
1000
0100
0001
0010
0100
0001
0000
1000
0100
0001
0000
1001
0000
0000
0000
,  // measure 40
0100
0000
0010
0100
0010
0001
1000
0000
0100
0010
0100
0000
0001
0000
1000
0100
,  // measure 41
0001
0000
0010
0100
0000
0001
1000
0000
0100
0010
0100
0000
0001
0000
0010
0100
,  // measure 42
0001
0000
1000
0100
0001
0100
0001
0000
0010
0100
0001
0000
1000
0000
0001
0100
,  // measure 43
0010
0000
0100
0001
0000
0010
0100
0000
0001
1000
0100
0000
0001
0000
0010
0100
,  // measure 44
0001
0000
0010
0100
0010
0001
0100
0000
0010
0100
0001
0000
1000
0000
0100
0001
,  // measure 45
0010
0000
0100
0001
0000
0010
0100
0000
0001
1000
0100
0000
0001
0000
0010
0100
,  // measure 46
0001
0000
0010
0100
0001
1000
0001
0000
0010
0100
0001
0000
0010
0000
0100
0001
,  // measure 47
0010
0000
1000
0100
0000
0001
0010
0000
0100
0001
0010
0000
0100
0000
0001
0010
,  // measure 48
0100
0001
0010
0100
0001
0010
0100
0000
1000
0100
0010
0000
0100
0000
0010
0001
,  // measure 49
0010
0000
0100
0001
0000
0010
0100
0000
0001
1000
0100
0000
0001
0000
0100
0010
,  // measure 50
0100
0010
0100
0001
1000
0001
0010
0000
0100
0001
0010
0000
0100
0000
0001
0010
,  // measure 51
0100
0000
0010
0100
0000
0001
1000
0000
0100
0001
0010
0000
0100
0000
0001
0100
,  // measure 52
0001
0000
0001
1000
0100
0000
0100
0010
,  // measure 53
0001
0100
0001
0100
1000
0000
0001
0100
,  // measure 54
0010
0000
0001
1000
0100
0000
0010
0001
,  // measure 55
0100
0000
1000
0000
0000
0000
0010
0000
0000
0000
0000
0100
0001
0010
0100
0000
,  // measure 56
0010
0000
0100
0001
0000
1000
0100
0000
0001
0010
0100
0000
0001
0000
1000
0100
,  // measure 57
0001
0000
0010
0100
0000
0001
1000
0000
0100
0010
0100
0000
0001
0000
1000
0100
,  // measure 58
0001
0000
0010
0100
0000
0001
1000
0000
0110
0000
0000
0000
0100
0000
0010
0100
,  // measure 59
0001
0000
0010
0001
0100
0010
0100
0010
0001
1000
0100
0010
0100
0001
1000
0001
,  // measure 60
0010
0000
0100
0001
0000
0010
0100
0000
0001
0010
0100
0000
0001
0000
1000
0100
,  // measure 61
0001
0000
0010
0100
0000
0001
1000
0000
0100
0010
0100
0000
0001
0000
1000
0100
,  // measure 62
0001
0000
0010
0100
0000
0001
1000
0000
0101
0000
0000
0000
0010
0000
1000
0100
,  // measure 63
0001
0010
0100
0001
1000
0001
0010
0100
0001
0100
0010
0000
0100
0001
1000
0001
,  // measure 64
0010
0100
0001
1000
0001
0010
0100
0001
0100
0001
0010
0000
1000
0100
0001
0100
,  // measure 65
0001
0010
0100
0001
1000
0001
0010
0100
0001
0010
0100
0000
0100
0010
0001
0100
,  // measure 66
0010
0001
1000
0001
0100
0010
0001
0100
1000
0000
0000
0000
0000
0000
0100
0001
,  // measure 67
0010
0000
0100
0001
0100
0010
0001
1000
0100
0010
0100
0000
0001
1000
0100
0001
,  // measure 68
0010
0100
0001
1000
0001
0010
0100
0001
0010
0100
0001
0000
0010
0100
0001
1000
,  // measure 69
0001
0010
0100
0001
1000
0001
0010
0100
0001
0100
0001
0000
0010
0100
0001
1000
,  // measure 70
0001
0010
0100
0001
0100
0001
0010
0100
0001
0100
1000
0000
0100
0000
0010
0100
,  // measure 71
0001
1000
0100
0010
0100
0001
0010
0000
0100
0001
0010
0000
1000
0100
0001
0010
,  // measure 72
0100
0010
0001
0100
1000
0000
0010
0000
,  // measure 73
0100
0000
0000
0010
0100
0001
0000
0000
0000
0000
0000
0000
0000
0000
1000
0000
,  // measure 74
0100
0000
0000
0010
0100
0001
0000
0000
0000
0000
0000
0000
0000
0000
1000
0100
,  // measure 75
0001
0000
0010
0100
0001
0000
0100
1000
0000
0010
0000
0001
0100
0000
0000
0000
,  // measure 76
0100
0000
0010
0000
0001
0000
0100
0000
1000
0000
0000
0000
0100
0000
0000
0010
,  // measure 77
0100
0000
0000
0010
0100
0001
0000
0000
0000
0000
0000
0000
1000
0000
0000
0010
,  // measure 78
0100
0000
0010
0100
0001
0010
0100
0000
0001
0000
0100
0000
0010
0000
0001
0100
,  // measure 79
1000
0000
0100
0001
0100
0001
0010
0100
0001
1000
0001
0000
0010
0000
0100
0000
,  // measure 80
1000
0100
0010
0100
0010
0001
0100
0001
0100
0010
0001
0100
1000
0000
0001
0000
,  // measure 81
0010
0000
0100
0001
0000
0010
0100
0000
0001
1000
0100
0000
0010
0000
0100
0001
,  // measure 82
0010
0000
0100
0001
0000
0010
0100
0000
0001
1000
0100
0000
0001
0000
0010
0100
,  // measure 83
0001
0000
0010
0100
0000
0001
1000
0000
0110
0000
0000
0000
0100
0000
0010
0100
,  // measure 84
0001
0000
1000
0100
0001
0010
0100
0010
0001
0100
0010
0000
1000
0100
0001
0010
,  // measure 85
0100
0000
0001
0010
0000
0100
0001
0000
1000
0100
0001
0000
0010
0000
0100
0001
,  // measure 86
0010
0000
0100
0001
0000
1000
0100
0000
0001
0010
0100
0000
0001
0000
1000
0100
,  // measure 87
0001
0000
0010
0100
0000
0001
1000
0000
0110
0000
0000
0000
0010
0000
0100
0001
,  // measure 88
0010
0000
0001
1000
0100
0001
0010
0100
0001
0100
0001
0000
1000
0100
0001
0100
,  // measure 89
0001
0100
0001
0010
0100
0001
1000
0001
0010
0100
0001
0000
0010
0100
0001
1000
,  // measure 90
0001
0010
0100
0001
0100
0001
0010
0100
0001
0100
0010
0000
0010
0001
0100
0010
,  // measure 91
0001
0100
0001
0100
0010
0100
0001
1000
0100
0000
0000
0000
0010
0000
0100
0001
,  // measure 92
0010
0000
0100
0001
0100
0001
1000
0001
0010
0100
0001
0000
0010
0001
0100
0001
,  // measure 93
0010
0100
0010
0100
0010
0001
0100
0010
0001
0100
1000
0000
0010
0001
0100
0010
,  // measure 94
0001
1000
0001
0100
0010
0001
0100
0010
0001
0100
1000
0000
0100
0010
0001
0100
,  // measure 95
0001
0100
0010
0001
1000
0001
0100
0010
1000
0100
0001
0000
0100
0000
0010
0100
,  // measure 96
0001
1000
0100
0001
0010
0100
0001
0000
0001
1000
0100
0000
0110
0000
0000
0000
;
