#VERSION:0.83;
#TITLE:low battery;
#SUBTITLE:;
#ARTIST:RAPH4EL;
#TITLETRANSLIT:;
#SUBTITLETRANSLIT:;
#ARTISTTRANSLIT:;
#GENRE:;
#ORIGIN:;
#CREDIT:;
#BANNER:;
#BACKGROUND:;
#PREVIEWVID:;
#JACKET:;
#CDIMAGE:;
#DISCIMAGE:;
#LYRICSPATH:;
#CDTITLE:;
#MUSIC:LOW BATTERY.ogg;
#OFFSET:0.000000;
#SAMPLESTART:100.059883;
#SAMPLELENGTH:12.000000;
#SELECTABLE:YES;
#BPMS:0.000=140.000,
334.000=120.000,
335.000=110.000,
336.000=115.000;
#STOPS:;
#DELAYS:;
#WARPS:;
#TIMESIGNATURES:0.000=4=4;
#TICKCOUNTS:0.000=4;
#COMBOS:0.000=1;
#SPEEDS:0.000=1.000=0.000=0;
#SCROLLS:0.000=1.000;
#FAKES:;
#LABELS:0.000=Song Start;
#BGCHANGES:;
#KEYSOUNDS:;
#ATTACKS:
;

//---------------dance-single - ----------------
#NOTEDATA:;
#CHARTNAME:;
#STEPSTYPE:dance-single;
#DESCRIPTION:;
#CHARTSTYLE:;
#DIFFICULTY:Hard;
#METER:14;
#RADARVALUES:0.596423,0.690981,0.182544,0.011777,0.226708,709.000000,678.000000,31.000000,2.000000,0.000000,0.000000,0.000000,0.000000,0.000000,0.596423,0.690981,0.182544,0.011777,0.226708,709.000000,678.000000,31.000000,2.000000,0.000000,0.000000,0.000000,0.000000,0.000000;
#CREDIT:;
#NOTES:
// measure 0
0000
0000
0000
0000
,  // measure 1
0000
0000
0000
0000
,  // measure 2
0000
0000
0000
0000
,  // measure 3
0000
0000
0000
0000
,  // measure 4
0000
0000
0000
0000
,  // measure 5
0000
0000
0000
0000
,  // measure 6
2000
0000
0000
0000
,  // measure 7
0000
0000
0200
0000
3300
0001
0100
0010
,  // measure 8
0000
0011
0000
0011
0000
0011
0000
0101
,  // measure 9
0000
0010
0100
0001
0100
0001
0100
1000
,  // measure 10
0010
0101
0000
0011
0000
0110
0000
0011
,  // measure 11
0000
0100
0010
0001
0100
0001
0100
1000
,  // measure 12
0010
0110
0000
0101
0000
1100
0000
0110
,  // measure 13
0000
0100
0010
0001
0100
0001
0100
1000
,  // measure 14
0000
0010
0100
0001
0100
0010
0100
0010
,  // measure 15
0110
0101
0101
0110
,  // measure 16
1000
0001
1000
0000
0100
0000
0010
0000
0100
0000
0001
0000
0100
0000
0010
0000
,  // measure 17
0000
0100
0010
0001
0100
0001
0100
1000
,  // measure 18
0010
0100
0010
0001
0100
0001
0100
1000
,  // measure 19
0000
0010
0001
0100
0000
0010
0100
0010
,  // measure 20
0100
0000
0001
0000
0100
0000
1000
0000
0000
0000
0100
0000
0001
0010
0000
0100
,  // measure 21
0001
0000
0010
0000
0001
0000
0100
0000
0010
0000
0000
0000
1000
0100
0000
0001
,  // measure 22
0010
0100
0001
0100
0010
0000
0100
0010
,  // measure 23
0001
1000
0001
0100
0001
0000
0100
0000
,  // measure 24
0100
0010
0001
0100
0010
0000
0100
0010
,  // measure 25
0001
0100
0001
0100
1000
0000
0100
0000
,  // measure 26
0010
0100
0001
0010
0001
0100
0001
0100
,  // measure 27
1000
0000
0001
1000
0001
0100
0010
0000
,  // measure 28
0100
0010
0000
0001
0100
0010
0100
0001
,  // measure 29
0010
0100
0000
0010
1000
0001
0100
0000
,  // measure 30
0100
0010
0000
0100
0010
0001
0100
0000
,  // measure 31
0010
0000
0100
0000
0001
0000
0100
0010
0001
0000
0100
0000
0001
0000
0100
0000
,  // measure 32
1001
0010
0001
0100
0001
0100
0010
0001
,  // measure 33
0100
0010
0100
0001
0100
0010
0001
0100
,  // measure 34
0110
0010
0001
0100
0001
0100
0001
0100
,  // measure 35
0010
0001
0100
0001
0100
0010
0100
0001
,  // measure 36
1100
0100
0010
0100
0010
0100
0010
0001
,  // measure 37
0100
0001
0100
0010
0001
0100
0001
0100
,  // measure 38
1000
0010
0100
0010
0001
0100
0001
0100
,  // measure 39
0010
0000
0001
0100
0010
0000
0001
0100
1000
0000
0100
0000
0010
0000
0100
0000
,  // measure 40
0010
0100
0000
0000
0100
0001
0100
0000
0010
0001
0100
0000
0010
0100
0001
0000
,  // measure 41
0100
0010
0001
0000
0100
0001
0010
0000
0001
0000
0100
0000
0001
0000
0100
0000
,  // measure 42
1000
0010
0100
0000
0001
0100
0010
0000
0001
0100
0010
0000
0001
0000
1000
0000
,  // measure 43
0100
0000
0010
0000
0010
0001
0100
0001
0100
0000
1000
0000
0010
0000
0100
0000
,  // measure 44
1000
0100
0001
0000
0001
0100
0010
0000
0001
0100
0001
0000
0100
0010
0100
0000
,  // measure 45
0001
1000
0100
0000
0010
0100
0001
0000
0100
0001
0010
0000
0100
0001
1000
0000
,  // measure 46
0010
0001
0100
0000
1000
0001
0100
0000
0010
0001
0100
0000
0100
0000
0010
0000
,  // measure 47
0100
0010
0001
0100
0001
0100
1000
0100
,  // measure 48
0010
0001
0100
0010
0001
1000
0001
0100
,  // measure 49
0010
0001
0100
0001
0100
0001
1000
0000
,  // measure 50
0100
0010
0100
0000
0001
0000
1000
0000
0100
0000
0001
0000
0100
0000
0001
0000
,  // measure 51
0010
0100
0010
0001
0100
0001
0100
0000
,  // measure 52
0100
0001
0010
0000
0001
0000
0100
0000
0001
0000
1000
0000
0100
0000
0010
0000
,  // measure 53
0001
0100
0010
0001
0100
0001
0100
1000
,  // measure 54
0000
0110
0000
0010
0100
0001
0100
1000
,  // measure 55
0000
0110
0000
0101
0000
1100
0000
0000
,  // measure 56
0010
0100
0010
0001
1000
0001
0100
0010
,  // measure 57
0001
0100
0010
0001
0100
0010
0001
0100
,  // measure 58
0001
0100
0010
0001
1000
0001
0100
0010
,  // measure 59
0001
0000
0100
0000
0001
0000
0100
0010
0001
0010
0100
0000
0100
0000
0010
0000
,  // measure 60
0101
0001
0100
0010
0101
0100
0001
0100
,  // measure 61
1001
0010
0100
0001
0100
0010
0100
0010
,  // measure 62
1000
0000
0010
0100
0001
0010
0100
0010
,  // measure 63
0100
0010
0001
0100
0001
0100
1000
0000
,  // measure 64
0001
0000
1000
0000
0000
0000
0001
0000
0100
0000
0001
0100
0010
0000
0000
0000
,  // measure 65
0001
0100
0000
0010
0001
0100
1000
0000
,  // measure 66
0001
0100
0000
0010
0001
1000
0100
0000
,  // measure 67
0100
0000
0010
0000
0100
0000
0010
0001
0100
0010
0100
0000
0001
0000
0100
0000
,  // measure 68
0010
0101
0000
0101
0000
0101
0000
0110
,  // measure 69
0000
0001
0100
0010
0001
0100
0001
0100
,  // measure 70
1000
0100
0010
0100
0010
0100
0010
0100
,  // measure 71
0010
0100
1000
0100
0010
0001
0100
0001
,  // measure 72
0100
0010
0001
0100
0001
0100
0010
0001
,  // measure 73
0100
0001
0100
0010
0001
0100
0001
0100
,  // measure 74
0010
0001
1000
0001
0100
0010
0001
0100
,  // measure 75
0001
0000
0100
0000
0010
0000
0001
0010
0100
0000
0001
0000
0100
0000
0010
0000
,  // measure 76
1000
0100
0001
0000
0010
0001
0100
0000
0010
0001
0100
0000
0100
0010
0100
0000
,  // measure 77
0001
1000
0100
0000
0001
0100
0001
0000
0010
0100
0001
0000
0001
0100
0010
0000
,  // measure 78
0001
0100
1000
0000
0001
0100
0010
0000
0001
0100
0010
0000
0100
0000
0001
0000
,  // measure 79
0010
0000
0001
0000
0100
0000
0010
0100
0001
0000
0010
0000
0100
0000
0010
0000
,  // measure 80
1000
0100
0001
0000
0010
0001
0100
0000
0010
0100
0001
0000
1000
0100
0001
0000
,  // measure 81
0010
0100
0001
0000
1000
0100
0001
0000
0010
0100
0001
0000
1000
0100
0001
0000
,  // measure 82
0010
0100
0001
0000
0010
0100
0001
0000
1000
0100
0001
0000
0010
0000
0100
0000
,  // measure 83
0100
0001
1000
0001
0010
0001
0100
0000
,  // measure 84
0000
0000
0000
0000
,  // measure 85
0000
0000
0000
0110
,  // measure 86
0100
0000
0000
0000
1000
0010
0100
0000
0001
0000
0000
0000
1000
0100
0001
0000
,  // measure 87
0010
0000
0000
0000
0100
0001
0010
0000
0100
0000
0000
0000
1000
0100
0001
0000
,  // measure 88
0010
0000
0000
0000
0100
0010
0001
0000
0100
0000
0000
0000
0010
0001
0100
0000
,  // measure 89
1000
0100
0001
0000
0010
0100
0001
0000
1000
0000
0000
0000
0100
0001
0010
0000
,  // measure 90
0100
0000
0000
0000
0001
0100
1000
0000
0010
0000
0000
0000
0001
0100
1000
0000
,  // measure 91
0100
0000
0000
0000
0010
0001
0100
0000
0010
0000
0001
0000
0100
0000
0010
0000
,  // measure 92
0100
0000
0000
0000
0001
0100
1000
0000
0100
0000
0000
0000
0000
0000
0000
0000
,  // measure 93
0000
0000
0010
0001
0100
0010
0100
0000
0010
0000
0000
0000
0001
0100
1000
0000
;
