#VERSION:0.83;
#TITLE:lit effect;
#SUBTITLE:;
#ARTIST:Denzel Curry, The Scythe, LAZER DIM 700, & BKTHERULA;
#TITLETRANSLIT:;
#SUBTITLETRANSLIT:;
#ARTISTTRANSLIT:;
#GENRE:;
#ORIGIN:;
#CREDIT:;
#BANNER:;
#BACKGROUND:;
#PREVIEWVID:;
#JACKET:;
#CDIMAGE:;
#DISCIMAGE:;
#LYRICSPATH:;
#CDTITLE:;
#MUSIC:The Scythe Presents_ Lit Effect ft. Denzel Curry, Bktherula & LAZER DIM 700 (Official Video).ogg;
#OFFSET:0.000000;
#SAMPLESTART:100.059883;
#SAMPLELENGTH:12.000000;
#SELECTABLE:YES;
#BPMS:0.000=124.000;
#STOPS:;
#DELAYS:;
#WARPS:;
#TIMESIGNATURES:0.000=4=4;
#TICKCOUNTS:0.000=4;
#COMBOS:0.000=1;
#SPEEDS:0.000=1.000=0.000=0;
#SCROLLS:0.000=1.000;
#FAKES:;
#LABELS:0.000=Song Start;
#BGCHANGES:0.000=videoplayback.mp4=1.000=0=0=1=====,
99999=-nosongbg-=1.000=0=0=0 // don't automatically add -songbackground-
;
#KEYSOUNDS:;
#ATTACKS:
;

//---------------dance-single - ----------------
#NOTEDATA:;
#CHARTNAME:;
#STEPSTYPE:dance-single;
#DESCRIPTION:;
#CHARTSTYLE:;
#DIFFICULTY:Hard;
#METER:12;
#RADARVALUES:0.632999,0.707849,0.139977,0.019307,1.223591,918.000000,889.000000,29.000000,4.000000,0.000000,0.000000,0.000000,0.000000,0.000000,0.632999,0.707849,0.139977,0.019307,1.223591,918.000000,889.000000,29.000000,4.000000,0.000000,0.000000,0.000000,0.000000,0.000000;
#CREDIT:;
#NOTES:
// measure 0
0000
0000
0000
0000
,  // measure 1
0000
0000
0000
0000
,  // measure 2
0000
0000
0000
0000
,  // measure 3
0000
0000
0000
0000
,  // measure 4
0001
0100
0001
0100
0010
0001
1000
0001
0100
0010
0001
0100
,  // measure 5
0001
0100
0010
0100
0001
0100
0001
0100
1000
0001
0000
0000
,  // measure 6
0010
0100
0001
0100
0010
0001
0100
0001
0100
0001
0100
0010
,  // measure 7
0001
1000
0001
0100
0010
0001
0100
0001
0100
1000
0000
0000
,  // measure 8
0010
0100
0010
0001
0100
0010
0001
1000
0001
0100
0010
0100
,  // measure 9
0001
0100
0001
0100
0010
0001
1000
0001
0100
1000
0000
0000
,  // measure 10
0001
0100
0010
0001
0100
0001
0100
0001
1000
0100
0001
0010
,  // measure 11
0001
0100
0001
0100
0010
0001
0100
0001
0100
1000
0000
0000
,  // measure 12
1001
0000
0000
0001
0100
0001
0100
0001
0100
1000
0000
0000
,  // measure 13
1001
0000
0000
0100
0010
0001
0100
0001
0100
1000
0000
0000
,  // measure 14
1001
0000
0000
0100
0010
0001
0100
0001
0100
1000
0000
0000
,  // measure 15
1001
0000
0000
0010
0001
0100
0001
0100
0001
1000
0000
0000
,  // measure 16
1001
0000
0000
0100
0010
0001
1000
0001
0100
1000
0000
0000
,  // measure 17
1001
0000
0000
0100
0001
1000
0001
0100
0001
1000
0000
0000
,  // measure 18
1000
0100
0001
0000
1000
0100
0001
0010
0000
1001
0000
0000
,  // measure 19
0011
0000
0000
0100
0010
0001
1000
0001
0100
1000
0000
0000
,  // measure 20
1001
0000
0000
0001
0100
0010
0001
1000
0001
0100
0000
0000
,  // measure 21
0100
0001
1000
0000
0001
0100
0010
0100
0001
0000
1000
0100
,  // measure 22
0001
0000
0010
0000
0010
0100
0001
0100
1000
0000
0001
0100
,  // measure 23
0001
1000
0100
0000
0010
0001
0100
1000
0100
0001
1000
0001
,  // measure 24
0100
0010
0001
0100
0010
0001
1000
0001
0100
1000
0100
0010
,  // measure 25
0001
0100
0010
0001
1000
0001
0100
0010
0001
0100
0001
1000
,  // measure 26
0100
0000
0010
0000
0100
0001
1000
0000
0001
0000
0100
0010
,  // measure 27
0100
0001
1000
0000
0001
0100
0100
0000
0010
0100
0010
0100
,  // measure 28
0001
0000
1000
0100
0010
0001
0010
0000
0001
0010
0100
0001
,  // measure 29
1000
0001
0100
0000
0010
0100
0001
1000
0001
0000
0010
0100
,  // measure 30
0001
1000
0100
0010
0100
0001
1000
0000
0100
0000
0001
0010
,  // measure 31
0100
0001
0010
0000
0001
0100
0001
1000
0100
0010
0100
0001
,  // measure 32
1000
0100
0010
0001
1000
0001
0100
0001
0100
1000
0010
0001
,  // measure 33
0100
0001
0010
0000
0100
0001
1000
0100
0001
0010
0010
0100
,  // measure 34
1000
0010
0001
0000
0010
0100
0001
1000
0100
0000
0010
0100
,  // measure 35
0001
0100
0010
0100
0010
0001
1000
0001
0100
1000
0000
0000
,  // measure 36
0001
0100
0010
0001
0100
0001
0100
0001
0100
0001
0100
0001
,  // measure 37
0100
0010
1000
0001
0100
0001
0100
0001
0100
1000
0000
0000
,  // measure 38
0010
0001
0100
0001
0100
0001
0100
0001
0100
1000
0100
0010
,  // measure 39
0001
1000
0001
0100
0010
0001
0100
0001
0100
1000
0000
0000
,  // measure 40
0010
0001
0100
0010
0001
1000
0001
0100
0010
0100
0010
0100
,  // measure 41
0001
0100
0001
0100
0010
0001
1000
0001
0100
1000
0000
0000
,  // measure 42
0100
0010
0001
0100
0010
0001
0100
0001
0100
0010
0001
1000
,  // measure 43
0001
0100
0010
0001
0100
0001
0100
0001
1000
0100
0000
0000
,  // measure 44
1001
0000
0000
0001
0100
0010
0100
0001
0100
1000
0000
0000
,  // measure 45
1001
0000
0000
0100
0010
0001
1000
0001
0100
1000
0000
0000
,  // measure 46
1001
0000
0000
0010
0001
0100
0010
0001
0100
1000
0000
0000
,  // measure 47
0101
0000
0000
0100
0010
0001
1000
0001
0100
1000
0000
0000
,  // measure 48
1001
0000
0000
0001
1000
0001
0100
0001
1000
0100
0000
0000
,  // measure 49
0101
0000
0000
0100
0010
0001
1000
0001
0100
1000
0000
0000
,  // measure 50
0100
0001
1000
0000
0100
0001
0010
0100
0000
1001
0000
0000
,  // measure 51
0101
0000
0000
0010
0100
0001
1000
0001
0010
0100
0000
0000
,  // measure 52
1001
0000
0000
0010
0100
0001
1000
0001
0010
0100
0010
0100
,  // measure 53
0001
0010
0001
0100
0010
0001
0100
0001
0100
1000
0000
0000
,  // measure 54
0001
1000
0100
0010
0100
0001
0100
0001
0100
0001
0100
0010
,  // measure 55
0001
1000
0001
0100
0010
0001
0100
0001
0100
1000
0000
0000
,  // measure 56
0100
0010
0001
1000
0001
0100
0010
0001
0100
0001
0100
0010
,  // measure 57
0001
1000
0001
0100
0010
0001
0100
0001
0100
1000
0000
0000
,  // measure 58
0001
0100
0010
0001
1000
0001
0100
0010
0001
0100
0000
1000
,  // measure 59
0100
0010
0001
0100
0010
0001
0100
0001
0100
1000
0000
0000
,  // measure 60
0100
0001
1000
0000
0100
0001
0010
0100
0000
0000
0001
0000
0010
0000
1000
0100
,  // measure 61
0001
0010
0100
0001
1000
0100
0001
0000
0000
0000
0001
0000
0100
0000
0000
0001
,  // measure 62
0010
0000
0100
0000
0001
0000
1000
0000
0000
0000
0001
0000
0100
0000
0000
0010
,  // measure 63
0100
0000
0001
1000
0100
0000
0001
0000
0000
0000
1000
0000
0100
0000
0000
0000
,  // measure 64
0010
0100
0001
1000
0001
0000
0010
0000
0000
0000
0100
0000
0010
0000
0000
0000
,  // measure 65
0010
1000
0001
0100
1000
0000
0100
0001
0000
0000
0100
0010
0001
0000
0000
0000
,  // measure 66
0001
0100
0001
1000
0100
0000
0001
0000
0000
0000
0001
0000
0100
0000
0000
0000
,  // measure 67
0100
0001
1000
0100
0001
0000
0010
0000
0000
0000
0001
0000
0100
0000
0000
0000
,  // measure 68
0000
0000
0100
0010
0001
0100
0001
0100
0010
0001
1000
0001
0100
0010
0001
1000
,  // measure 69
0001
0100
0010
0001
1000
0001
0100
0010
0001
1000
0001
0100
1000
0000
0000
0000
,  // measure 70
0000
0000
0010
0001
0100
0001
0100
1000
0001
0100
0001
1000
0100
0000
0010
0100
,  // measure 71
0001
1000
0100
0000
0010
0000
0100
0010
0001
0100
0001
1000
0100
0000
0000
0000
,  // measure 72
0001
0100
0001
0100
0010
0001
1000
0001
0100
1000
0100
0000
,  // measure 73
0010
0001
1000
0001
0100
0010
0001
0100
0001
0100
1000
0000
,  // measure 74
0100
0010
0001
1000
0001
0100
0001
0100
0001
0100
1000
0000
,  // measure 75
0001
0100
0010
0001
1000
0001
0100
0010
0001
0100
0010
0100
,  // measure 76
0001
0100
0010
0100
0010
0001
0100
0001
0100
0001
0100
0010
,  // measure 77
0001
1000
0001
0100
0010
0001
0100
0001
0100
1000
0000
0000
,  // measure 78
0100
0001
0010
0001
0100
0001
0100
0001
0100
1000
0001
0100
,  // measure 79
0010
0001
0100
0001
0100
0001
0100
0001
0100
1000
0000
0000
,  // measure 80
0100
0010
0001
0100
0010
0001
0100
0001
0100
0010
0001
1000
,  // measure 81
0001
0100
0010
0001
0100
0001
0100
0001
0100
1000
0000
0000
,  // measure 82
0010
0001
0001
0100
0010
0001
0100
0001
0100
0010
0001
1000
,  // measure 83
0001
0100
0010
0001
1000
0001
0100
0001
0100
1000
0000
0000
,  // measure 84
1001
0000
0000
1000
0100
0001
0100
0001
1000
0001
0000
0000
,  // measure 85
0110
0000
0000
0001
1000
0100
0001
1000
0001
0010
0000
0000
,  // measure 86
0110
0000
0000
0001
1000
0100
0001
1000
0001
0010
0000
0000
,  // measure 87
0110
0000
0000
0001
1000
0100
0001
0100
0001
1000
0000
0000
,  // measure 88
1100
0000
0000
0100
0001
0100
0001
1000
0001
0010
0000
0000
,  // measure 89
1001
0000
0000
0100
0010
0001
1000
0001
0100
1000
0000
0000
,  // measure 90
0010
0001
0100
0000
0010
0100
0001
1000
0000
0110
0000
0000
,  // measure 91
0101
0000
0000
1000
0100
0001
0100
0001
0100
1000
0000
0000
,  // measure 92
0220
0000
0000
0000
,  // measure 93
0000
0000
0000
0000
,  // measure 94
0000
0000
0000
0000
,  // measure 95
0000
0000
0330
0110
,  // measure 96
0001
0100
0010
0001
,  // measure 97
0100
0001
1000
0100
,  // measure 98
0001
0100
0010
0001
,  // measure 99
1000
0001
0100
0010
,  // measure 100
2002
0000
0000
0000
,  // measure 101
0000
0000
0000
0000
,  // measure 102
0000
0000
0000
0000
,  // measure 103
0000
0000
0000
0000
,  // measure 104
0000
0000
0000
3003
;
