#TITLE:life keeps going;
#SUBTITLE:;
#ARTIST:Genisis Owusu;
#TITLETRANSLIT:;
#SUBTITLETRANSLIT:;
#ARTISTTRANSLIT:;
#GENRE:;
#CREDIT:;
#BANNER:;
#BACKGROUND:;
#LYRICSPATH:;
#CDTITLE:;
#MUSIC:Genesis Owusu - LIFE KEEPS GOING (Official Music Video).ogg;
#OFFSET:0.000000;
#SAMPLESTART:100.059883;
#SAMPLELENGTH:12.000000;
#SELECTABLE:YES;
#BPMS:0.000000=352.000000
;
#STOPS:0.000000=1.200000
;
#BGCHANGES:0.000=Genesis Owusu - LIFE KEEPS GOING (Official Music Video).mp4=1.000=0=0=1=====,
99999=-nosongbg-=1.000=0=0=0 // don't automatically add -songbackground-
;
#KEYSOUNDS:;
#ATTACKS:;

//---------------dance-single - ----------------
#NOTES:
     dance-single:
     :
     Hard:
     16:
     1.083464,1.006657,0.036008,0.000000,0.000000,1685.000000,1677.000000,8.000000,0.000000,0.000000,0.000000,1.083464,1.006657,0.036008,0.000000,0.000000,1685.000000,1677.000000,8.000000,0.000000,0.000000,0.000000:
// measure 0
0000
0000
0000
0000
,  // measure 1
0000
0000
0000
0000
,  // measure 2
0000
0000
0000
0000
,  // measure 3
0000
0000
0000
0000
,  // measure 4
0000
0000
0000
0000
,  // measure 5
0000
0000
0000
0000
,  // measure 6
0000
0000
0000
0000
,  // measure 7
0000
0000
0000
0000
,  // measure 8
0001
0100
0010
0001
0010
0100
0001
0100
,  // measure 9
1000
0010
0001
1000
,  // measure 10
0100
0010
0100
0001
1000
0001
0010
0100
,  // measure 11
0001
0100
0001
0100
,  // measure 12
0010
0001
0100
0010
0001
0100
0001
0100
,  // measure 13
1000
0001
0100
0010
,  // measure 14
0100
0100
0010
0100
0001
1000
0001
0010
,  // measure 15
0100
0001
0100
0010
,  // measure 16
0100
0001
0100
0001
1000
0001
0010
0100
,  // measure 17
0001
0001
0100
1000
,  // measure 18
0100
0001
0100
0010
0001
0100
0001
0100
,  // measure 19
1000
0001
0100
1000
,  // measure 20
0100
0010
0100
0001
1000
0001
0010
0100
,  // measure 21
0001
0010
0010
0100
,  // measure 22
0001
0100
0010
0001
0100
0001
0100
1000
,  // measure 23
0100
0001
0100
0010
,  // measure 24
0100
0010
0001
0100
0010
0001
1000
0001
,  // measure 25
0100
0001
0100
0010
,  // measure 26
1000
0100
0001
0010
0100
0001
0010
0100
,  // measure 27
0001
0100
0010
0001
,  // measure 28
0100
0001
0010
0001
0100
0001
0100
0001
,  // measure 29
1000
0010
0001
0100
,  // measure 30
0010
0001
1000
0001
0100
0001
0100
0010
,  // measure 31
0001
0001
1000
0100
,  // measure 32
0010
0001
0100
0010
0001
0100
0001
1000
,  // measure 33
0100
0100
0010
0000
,  // measure 34
0001
0100
0001
0100
0001
1000
0100
0000
,  // measure 35
0001
1000
0001
0100
,  // measure 36
0001
0100
0010
0001
1000
0001
0100
0000
,  // measure 37
0001
1000
0001
0100
,  // measure 38
0010
0100
0001
1000
0001
0010
0100
0000
,  // measure 39
0100
0010
0001
0100
,  // measure 40
0010
0100
0001
0100
0010
0010
0100
0001
,  // measure 41
0001
1000
0001
0000
,  // measure 42
0001
0100
0010
0001
1000
0001
0100
0100
,  // measure 43
0010
0001
1000
0001
,  // measure 44
0010
0100
0001
1000
0001
0010
0100
0001
,  // measure 45
0010
0001
0100
0010
,  // measure 46
0100
1000
0001
0100
0001
0010
0100
0001
,  // measure 47
0010
0100
0010
0100
,  // measure 48
0001
1000
0100
0001
0100
0001
0010
0000
,  // measure 49
0010
0001
1000
0100
,  // measure 50
0001
0100
0001
0100
0010
1000
0100
0001
,  // measure 51
0010
0100
0001
0010
,  // measure 52
0100
0001
1000
0100
0001
0100
0001
0010
,  // measure 53
0100
0010
0001
0100
,  // measure 54
0010
0001
0100
0001
0100
0010
0100
1000
,  // measure 55
0001
0010
0001
1000
,  // measure 56
0100
0010
0100
0001
1000
0001
0010
0100
,  // measure 57
0001
0001
0100
0010
,  // measure 58
0010
0100
1000
0001
0100
0001
0010
0100
,  // measure 59
0001
0010
0100
0001
,  // measure 60
1000
0100
0001
0100
0001
1000
0001
0010
,  // measure 61
0100
0001
0100
0010
,  // measure 62
1000
0100
0001
0100
0001
1000
0001
0010
,  // measure 63
0100
0010
0100
0001
,  // measure 64
1000
0100
0001
0100
0001
1000
0001
0010
,  // measure 65
0100
0100
0001
1000
,  // measure 66
0100
0100
0010
0001
0100
0010
0001
1000
,  // measure 67
0100
0010
0100
0001
,  // measure 68
1000
0100
0001
0100
0001
1000
0001
0010
,  // measure 69
0100
0001
0010
0100
,  // measure 70
0001
0100
0010
0100
0010
0100
0001
1000
,  // measure 71
0100
0010
0100
0001
,  // measure 72
1000
0100
0001
1000
0001
0010
0100
0001
,  // measure 73
0010
0010
0001
0100
,  // measure 74
1000
0010
0100
0001
1000
0001
0010
0100
,  // measure 75
0001
0010
0001
1000
,  // measure 76
0100
0010
0100
0001
1000
0001
0010
0100
,  // measure 77
0001
0010
0001
0100
,  // measure 78
0010
0100
0001
1000
0001
0010
0100
0001
,  // measure 79
0010
0001
1000
0100
,  // measure 80
0010
0100
0001
1000
0001
0010
0100
0001
,  // measure 81
0010
0010
0001
0100
,  // measure 82
0010
0100
0001
1000
0001
0010
0100
0010
,  // measure 83
0001
0100
0001
0100
,  // measure 84
0001
1000
0100
0001
0100
0001
1000
0001
,  // measure 85
0010
0100
0010
0001
,  // measure 86
0100
0001
0100
0010
,  // measure 87
0001
1000
0001
0100
,  // measure 88
0100
0010
0001
0100
0001
1000
0100
0001
,  // measure 89
0010
0100
0001
1000
,  // measure 90
0001
0010
0100
0001
1000
0001
0010
0100
,  // measure 91
0001
0100
0010
0001
,  // measure 92
0100
0010
0100
0001
1000
0001
0010
0100
,  // measure 93
0001
1000
0010
0100
,  // measure 94
0010
0001
0100
0010
0001
1000
0001
0100
,  // measure 95
1000
0010
0001
0100
,  // measure 96
0010
0001
0100
0010
0001
0100
0001
1000
,  // measure 97
0100
0010
0100
0001
,  // measure 98
1000
0100
0001
1000
0100
0001
0100
0001
,  // measure 99
0010
0001
0100
0010
,  // measure 100
0100
1000
0001
0100
0001
0010
0100
0001
,  // measure 101
0010
0100
0001
1000
,  // measure 102
0001
0010
0100
0001
1000
0001
0010
0100
,  // measure 103
0001
0001
0100
0010
,  // measure 104
0100
1000
0001
0100
0001
1000
0001
0010
,  // measure 105
0100
0010
0100
0001
,  // measure 106
1000
0100
0001
1000
0001
0010
0100
0001
,  // measure 107
0010
0001
1000
0100
,  // measure 108
0010
0100
0001
1000
0001
0010
0100
0001
,  // measure 109
0010
1000
0001
0100
,  // measure 110
0010
0100
0001
1000
0001
0010
0100
0001
,  // measure 111
0010
0010
0001
0100
,  // measure 112
0010
0100
0001
1000
0001
0010
0100
0001
,  // measure 113
0010
0001
1000
0100
,  // measure 114
0010
0100
0001
1000
0001
0010
0100
0001
,  // measure 115
0010
0001
1000
0100
,  // measure 116
0010
0001
0100
0010
0001
0100
0001
1000
,  // measure 117
0100
0010
0100
0001
,  // measure 118
1000
0100
0001
1000
0001
0010
0100
0001
,  // measure 119
0010
0001
1000
0100
,  // measure 120
0010
0001
0100
0010
0001
0100
0001
1000
,  // measure 121
0100
0010
0100
0001
,  // measure 122
1000
0100
0001
1000
0001
0010
0100
0001
,  // measure 123
0010
0001
1000
0100
,  // measure 124
0010
0100
0001
1000
0001
0010
0100
0001
,  // measure 125
0010
0001
0100
1000
,  // measure 126
0010
0100
0001
1000
0001
0010
0100
0001
,  // measure 127
0010
0001
1000
0100
,  // measure 128
0010
0100
0001
1000
0001
0010
0100
0001
,  // measure 129
0010
0010
0001
1000
,  // measure 130
0100
0010
0100
0001
1000
0001
0010
0100
,  // measure 131
0001
0010
0100
0001
,  // measure 132
1000
0001
0100
0010
0001
0100
0001
1000
,  // measure 133
0100
0001
0100
0010
,  // measure 134
0100
0001
1000
0001
0010
0100
0001
0010
,  // measure 135
0100
0010
0100
0001
,  // measure 136
1000
0100
0001
1000
0001
0010
0100
0001
,  // measure 137
0010
1000
0001
0100
,  // measure 138
0010
0001
0100
0010
0001
0100
0001
1000
,  // measure 139
0100
0001
0100
0010
,  // measure 140
0100
0001
0100
0001
1000
0001
0010
0100
,  // measure 141
0001
0010
0100
0001
,  // measure 142
1000
0100
0001
1000
0001
0010
0100
0001
,  // measure 143
0010
0010
0001
1000
,  // measure 144
0100
0010
0100
0001
1000
0001
0010
0100
,  // measure 145
0001
0010
0001
0100
,  // measure 146
0010
0001
0100
0010
0001
0100
0001
1000
,  // measure 147
0100
0010
0100
0001
,  // measure 148
1000
0100
0001
1000
0001
0010
0100
0001
,  // measure 149
0010
0001
0100
0010
,  // measure 150
0100
1000
0001
0100
0001
0010
0100
0001
,  // measure 151
0010
0100
0001
1000
,  // measure 152
0010
0001
0100
0010
0001
0100
0001
1000
,  // measure 153
0100
0010
0100
0001
,  // measure 154
0010
0001
0100
0010
0001
0100
0001
1000
,  // measure 155
0100
0001
0100
0010
,  // measure 156
0100
0001
0010
0001
0100
0010
0001
0100
,  // measure 157
1000
0010
0100
0001
,  // measure 158
1000
0100
0001
1000
0001
0010
0100
0001
,  // measure 159
0010
0001
0100
0010
,  // measure 160
0001
0100
0010
0001
0100
0001
1000
0100
,  // measure 161
0010
0100
0001
1000
,  // measure 162
0001
0010
0100
0001
1000
0001
0010
0100
,  // measure 163
0001
0001
0100
0010
,  // measure 164
1001
0000
1001
0000
,  // measure 165
1001
0000
1001
0000
,  // measure 166
1001
0000
1001
0000
,  // measure 167
1001
0000
1001
0000
,  // measure 168
0100
0001
1000
0001
0010
0100
0001
0000
,  // measure 169
0010
0100
0001
1000
,  // measure 170
0001
0010
0100
0001
1000
0001
0010
0100
,  // measure 171
0001
0001
0010
0100
,  // measure 172
0001
0100
0010
0100
0001
1000
0001
0100
,  // measure 173
0010
0100
0001
1000
,  // measure 174
0001
0010
0100
0001
1000
0001
0010
0100
,  // measure 175
0001
0010
0001
0100
,  // measure 176
0100
0010
0001
0100
0001
0100
0001
0100
,  // measure 177
1000
0100
0001
0010
,  // measure 178
0100
0001
1000
0001
0010
0100
0001
1000
,  // measure 179
0001
0001
1000
0100
,  // measure 180
0010
0100
0001
1000
0001
0010
0100
0001
,  // measure 181
0010
0001
1000
0100
,  // measure 182
0010
0001
0100
0010
0001
0100
0001
1000
,  // measure 183
0100
0010
0100
0001
,  // measure 184
1000
0100
0010
0001
0100
0001
0100
0010
,  // measure 185
0001
0010
0100
0001
,  // measure 186
1000
0001
0100
0010
0001
0100
0001
1000
,  // measure 187
0100
0010
0100
0001
,  // measure 188
1000
0100
0001
0100
0001
1000
0001
0010
,  // measure 189
0100
0010
0100
0001
,  // measure 190
0010
0001
0100
0010
0001
0100
0001
1000
,  // measure 191
0100
0010
0100
0001
,  // measure 192
1000
0100
0001
1000
0001
0010
0100
0001
,  // measure 193
0010
0100
0001
1000
,  // measure 194
0100
0010
0001
0100
0001
0100
0001
1000
,  // measure 195
0100
0010
0100
0001
,  // measure 196
1000
0100
0001
1000
0001
0010
0100
0001
,  // measure 197
0010
0010
0001
0100
,  // measure 198
0010
0100
0001
1000
0001
0010
0100
0001
,  // measure 199
0010
0001
0100
0010
,  // measure 200
0100
0001
1000
0001
0010
0100
0001
0100
,  // measure 201
0001
0100
0010
0001
,  // measure 202
0100
0010
0100
0001
1000
0001
0010
0100
,  // measure 203
0001
0001
0100
0010
,  // measure 204
0100
0001
1000
0001
0010
0100
0001
0100
,  // measure 205
0001
0001
0100
0010
,  // measure 206
0100
0001
1000
0001
0010
0100
0001
0010
,  // measure 207
0100
0010
0001
0100
,  // measure 208
0010
0001
0100
0010
0001
0100
0001
0100
,  // measure 209
1000
0001
0100
0010
,  // measure 210
0100
0001
0100
0001
1000
0001
0010
0100
,  // measure 211
0010
0001
0100
0010
,  // measure 212
0100
0010
0001
0100
0001
1000
0100
0010
,  // measure 213
0100
0100
0010
0010
,  // measure 214
0001
0100
0010
0001
1000
0001
0100
0010
,  // measure 215
0001
0100
0001
0100
,  // measure 216
0010
0001
0100
0010
0001
0100
0001
1000
,  // measure 217
0100
0010
0001
0100
,  // measure 218
0010
0100
0001
1000
0001
0010
0100
0001
,  // measure 219
0010
0010
0100
0001
,  // measure 220
0100
0100
0010
0001
0100
0001
1000
0100
,  // measure 221
0010
0010
0100
0100
,  // measure 222
0001
1000
0100
0001
0100
0001
0100
0001
,  // measure 223
0010
0001
1000
0100
,  // measure 224
0010
0001
0100
0010
0001
0100
0001
1000
,  // measure 225
0100
0010
0100
0001
,  // measure 226
0010
0100
0001
1000
0001
0010
0100
0001
,  // measure 227
0010
0010
0001
0100
,  // measure 228
0010
0001
0100
0010
0001
0100
0001
1000
,  // measure 229
0100
0010
0001
0100
,  // measure 230
0010
0100
0001
1000
0001
0010
0100
0001
,  // measure 231
0100
0001
0100
0010
,  // measure 232
1000
0100
0001
0100
0001
0100
0001
1000
,  // measure 233
0001
0100
0010
0100
,  // measure 234
0010
0100
0001
0100
0001
0100
0001
1000
,  // measure 235
0100
0010
0100
0001
,  // measure 236
1000
0100
0001
1000
0001
0010
0100
0001
,  // measure 237
0010
0010
0001
1000
,  // measure 238
0100
0010
0100
0001
1000
0001
0010
0001
,  // measure 239
0100
0010
0001
0100
,  // measure 240
0010
0001
0100
0010
0001
1000
0001
0100
,  // measure 241
1000
0001
0100
0010
,  // measure 242
0100
0010
0001
0100
0001
0100
0001
1000
,  // measure 243
0100
0100
0010
0100
,  // measure 244
0001
0010
0100
0001
1000
0010
0010
0100
,  // measure 245
0001
0010
0001
0100
,  // measure 246
0010
0001
0100
0010
0001
0100
0001
1000
,  // measure 247
0100
0010
0001
0100
,  // measure 248
0010
0100
0001
0001
,  // measure 249
0100
0010
0001
0100
,  // measure 250
0010
0100
0001
0001
,  // measure 251
0100
0001
0100
0010
,  // measure 252
0001
1000
0001
0100
,  // measure 253
0100
0100
0010
0001
,  // measure 254
0100
0001
0010
0100
,  // measure 255
0001
0100
0010
0100
,  // measure 256
1000
0100
0010
0001
,  // measure 257
0100
0001
0100
0010
,  // measure 258
0001
0100
0001
0100
,  // measure 259
0010
0001
1000
0001
,  // measure 260
0100
0010
0001
0100
,  // measure 261
0001
0100
0010
0001
,  // measure 262
0100
0001
0100
0010
,  // measure 263
0001
1000
0010
0100
,  // measure 264
0010
0100
0010
0100
,  // measure 265
0001
0100
0010
0001
,  // measure 266
1000
0001
0100
0010
,  // measure 267
0001
0100
0001
0100
,  // measure 268
0010
0001
1000
0001
,  // measure 269
0100
0010
0001
0100
,  // measure 270
0001
0100
0010
0100
,  // measure 271
1000
0100
0010
0001
,  // measure 272
0100
0001
0100
0010
,  // measure 273
0001
0100
0001
0100
,  // measure 274
1000
0010
0001
0100
,  // measure 275
0001
0100
0010
0001
,  // measure 276
1000
0001
0100
0010
,  // measure 277
0001
0100
0001
0100
,  // measure 278
0010
0001
1000
0001
,  // measure 279
0100
0010
0001
0100
,  // measure 280
0001
0100
0010
0001
,  // measure 281
0100
0001
0100
0010
,  // measure 282
0001
1000
0001
0100
,  // measure 283
0010
0001
0100
0001
,  // measure 284
0100
0010
0001
1000
,  // measure 285
0001
0100
0010
0001
,  // measure 286
0100
0001
0100
0010
,  // measure 287
0001
1000
0001
0100
,  // measure 288
0010
0001
0100
0001
,  // measure 289
0100
0010
0001
1000
,  // measure 290
0001
0100
0010
0001
,  // measure 291
0100
0001
0100
0010
,  // measure 292
0001
1000
0001
0100
,  // measure 293
0010
0001
0100
0001
,  // measure 294
0100
0010
0001
0100
,  // measure 295
0001
0100
0001
1000
,  // measure 296
0100
0010
0100
0001
,  // measure 297
0010
0100
0001
1000
,  // measure 298
0010
0100
0100
0010
,  // measure 299
0001
0010
0100
0001
,  // measure 300
0100
0010
0100
1000
,  // measure 301
0100
0010
0001
0100
,  // measure 302
0001
0100
0010
0001
,  // measure 303
1000
0001
0100
0010
,  // measure 304
0001
0100
0001
0100
,  // measure 305
0010
0001
1000
0001
,  // measure 306
0100
0010
0001
0100
,  // measure 307
0001
0100
0010
0001
,  // measure 308
1000
0001
0100
0010
,  // measure 309
0001
0100
0001
0100
,  // measure 310
1000
0100
0010
0001
,  // measure 311
0100
0010
0010
0001
,  // measure 312
0000
0000
0010
0000
,  // measure 313
0000
0000
0010
0000
,  // measure 314
0000
0000
0010
0000
,  // measure 315
0000
0000
0010
0000
,  // measure 316
0000
0000
0010
0000
,  // measure 317
0000
0000
0010
0000
,  // measure 318
0000
0000
0010
0000
,  // measure 319
0000
0000
0010
0000
;
