#TITLE:let me tell you;
#SUBTITLE:;
#ARTIST:YEONJUN Of TOMMOROW X TOGETHER, & Daneila Avanzini Of KATSEYE;
#TITLETRANSLIT:;
#SUBTITLETRANSLIT:;
#ARTISTTRANSLIT:;
#GENRE:;
#CREDIT:;
#BANNER:;
#BACKGROUND:;
#LYRICSPATH:;
#CDTITLE:;
#MUSIC:let me tell you.ogg;
#OFFSET:0.000000;
#SAMPLESTART:100.059883;
#SAMPLELENGTH:12.000000;
#SELECTABLE:YES;
#BPMS:0.000000=110.000000
;
#STOPS:0.000000=0.200000
;
#BGCHANGES:;
#KEYSOUNDS:;
#ATTACKS:;

//---------------dance-single - ----------------
#NOTES:
     dance-single:
     :
     Hard:
     10:
     0.312067,0.452045,0.053280,0.066600,0.243089,328.000000,320.000000,8.000000,10.000000,0.000000,0.000000,0.312067,0.452045,0.053280,0.066600,0.243089,328.000000,320.000000,8.000000,10.000000,0.000000,0.000000:
// measure 0
0000
0000
0000
0000
,  // measure 1
0000
0000
0000
0000
,  // measure 2
0000
0000
0000
0000
,  // measure 3
0000
0000
0000
0000
,  // measure 4
0020
0000
0000
0000
0000
0000
0000
0000
0000
0000
0000
0000
0030
0000
1000
0100
,  // measure 5
0001
0001
0100
0010
1000
0000
0200
0000
,  // measure 6
0000
0000
0000
0300
,  // measure 7
0001
1000
0100
0001
0000
0100
0010
0000
1000
0000
0000
0000
0001
0000
0000
0000
,  // measure 8
0020
0000
0000
0000
0000
0000
0000
0000
0000
0000
0000
0000
0030
0000
0100
0001
,  // measure 9
0010
0100
0010
0001
1000
0000
0100
0000
,  // measure 10
0001
0100
0001
0100
,  // measure 11
2000
0000
0000
3000
,  // measure 12
1000
0100
0001
0010
0000
0000
0100
0000
0001
0000
0000
0000
1001
0000
0000
0000
,  // measure 13
0100
0001
0100
1000
0000
0000
0100
0000
0010
0000
0000
0000
0010
0000
0000
0000
,  // measure 14
0001
1000
0001
0100
0000
0000
0001
0000
0001
0000
0100
0000
0101
0000
0000
0000
,  // measure 15
1000
0100
0010
0001
,  // measure 16
0001
1000
0001
0100
0000
0010
0100
0000
0001
0000
0100
0000
0001
0000
0000
0000
,  // measure 17
0100
0001
1000
0100
0000
0001
0010
0100
0001
0000
0010
0000
1000
0000
0000
0000
,  // measure 18
0010
0001
0100
0010
0000
0000
0100
0000
0001
0000
0100
0000
0010
0000
0000
0000
,  // measure 19
0001
0000
0100
0000
0010
0000
0100
0001
,  // measure 20
0100
0001
0000
0000
,  // measure 21
0010
0000
0100
0000
0000
0000
0000
0100
,  // measure 22
0001
0000
0000
0000
0010
0000
0000
0000
0000
0000
0000
0000
0000
0000
0100
1000
,  // measure 23
0001
0000
0010
0000
0100
0000
0001
0010
0000
0000
0000
0000
0100
0000
0010
0000
,  // measure 24
0001
0000
0100
0000
0000
0000
0000
0001
,  // measure 25
1000
0000
0100
0000
0000
0000
0010
0001
,  // measure 26
1000
0000
0000
0000
0100
0000
0000
0000
0000
0000
0000
0000
0000
0000
1000
0100
,  // measure 27
0001
0000
0010
0000
0100
0000
0001
0010
0000
0000
0200
0000
0000
0000
0000
0000
,  // measure 28
0000
0000
0000
0300
,  // measure 29
0020
0000
0000
0030
,  // measure 30
0002
0000
0000
0003
,  // measure 31
2000
0000
0000
0000
0000
0000
3000
0100
,  // measure 32
0001
0000
0000
1000
0100
0000
0000
0000
,  // measure 33
1000
0100
0001
0000
0010
0000
0100
0000
0100
0000
0001
0000
0010
0000
0100
0001
,  // measure 34
0000
0000
0000
0000
0000
0000
1000
0100
0000
0000
0000
0000
0000
0000
0000
0000
,  // measure 35
0100
0000
0001
1000
0000
0100
0000
0001
0000
0001
0000
0100
0000
1000
0000
0100
,  // measure 36
0000
0000
0000
0000
0000
0000
0100
0001
0000
0000
0000
0000
0000
1000
0100
0001
,  // measure 37
0010
0000
0000
0000
0000
0000
1000
0100
0000
0000
0000
0000
0000
0100
0001
1000
,  // measure 38
0010
0000
0000
0000
0000
0100
0001
0000
0000
0000
0000
0000
0001
0000
0100
0000
,  // measure 39
0020
0000
0000
0030
,  // measure 40
1000
0001
0100
0010
0000
0000
0100
0000
0001
0000
0010
0000
0100
0000
0000
0000
,  // measure 41
1000
0100
0001
0100
0000
0000
0010
0000
0100
0000
0001
0000
1000
0000
0000
0000
,  // measure 42
0100
0001
1000
0100
0000
0000
0001
0000
0010
0000
0001
0000
0100
0000
0000
0000
,  // measure 43
1000
0100
0010
0001
,  // measure 44
0010
0001
0100
1000
0000
0010
0100
0000
0001
0000
0100
0000
1000
0000
0000
0000
,  // measure 45
0010
0001
0100
1000
0000
0010
0100
0001
1000
0000
0100
0000
0010
0000
0000
0000
,  // measure 46
0100
0001
0100
1000
0000
0000
0010
0000
0001
0000
0100
0000
1000
0000
0000
0000
,  // measure 47
0010
0000
0100
0000
0001
0000
0010
0001
,  // measure 48
0100
1000
0000
0000
,  // measure 49
0010
0000
0001
0000
0000
0000
0000
1000
,  // measure 50
0100
0000
0000
0000
0010
0000
0000
0000
0000
0000
0000
0000
0000
0000
1000
0100
,  // measure 51
0001
0000
0100
0000
0010
0000
0100
0001
0000
0000
0000
0000
0100
0000
0010
0000
,  // measure 52
0001
0000
0100
0000
0000
0000
0000
0001
,  // measure 53
0100
0000
0010
0000
0000
0000
0001
1000
,  // measure 54
0100
0000
0000
0000
0010
0000
0000
0000
0000
0000
0000
0000
0000
0000
1000
0100
,  // measure 55
0001
0000
1000
0000
0100
0000
0010
0100
0000
0000
0020
0000
0000
0000
0030
0000
,  // measure 56
0000
0000
0001
1000
0001
1000
0100
0000
,  // measure 57
0000
0010
0001
1000
0001
0100
1000
0001
,  // measure 58
0100
0010
0001
1000
0001
0100
1000
0100
,  // measure 59
0110
0000
0110
0000
0101
0000
0110
0101
,  // measure 60
0110
0000
0000
0000
0000
0000
1000
0100
0001
0000
0000
0010
0000
0000
0000
0000
,  // measure 61
0000
0000
0000
0000
0000
0000
0100
0000
0001
0000
0000
1000
0000
0000
0000
0000
,  // measure 62
0000
0000
0000
0000
0000
0000
0100
0001
1000
0000
0000
0100
0000
0000
0000
0000
,  // measure 63
0000
0000
0001
0000
0100
0000
0000
0000
0010
0000
0000
0001
0010
0001
0100
0000
,  // measure 64
0000
0000
0000
0000
0000
0000
1000
0100
0001
0000
0000
1000
0000
0000
0000
0000
,  // measure 65
0000
0000
0000
0000
0000
0000
0001
0000
0100
0000
0000
1000
0000
0000
0000
0000
,  // measure 66
0000
0000
0000
0000
0000
0000
0001
0100
1000
0000
0000
0100
0000
0000
0000
0000
,  // measure 67
0000
0000
0010
0000
0001
0000
0000
0000
0001
0000
0000
0010
0000
0000
0100
0000
;
