#VERSION:0.83;
#TITLE:let me be in your arms;
#SUBTITLE:;
#ARTIST:Sonny Fodera & Libianca;
#TITLETRANSLIT:;
#SUBTITLETRANSLIT:;
#ARTISTTRANSLIT:;
#GENRE:;
#ORIGIN:;
#CREDIT:;
#BANNER:;
#BACKGROUND:;
#PREVIEWVID:;
#JACKET:;
#CDIMAGE:;
#DISCIMAGE:;
#LYRICSPATH:;
#CDTITLE:;
#MUSIC:Sonny Fodera & Libianca - Let Me Be In Your Arms (Official Lyric Video).ogg;
#OFFSET:0.000000;
#SAMPLESTART:100.059883;
#SAMPLELENGTH:12.000000;
#SELECTABLE:YES;
#BPMS:0.000=124.000;
#STOPS:0.000=0.100;
#DELAYS:;
#WARPS:;
#TIMESIGNATURES:0.000=4=4;
#TICKCOUNTS:0.000=4;
#COMBOS:0.000=1;
#SPEEDS:0.000=1.000=0.000=0;
#SCROLLS:0.000=1.000;
#FAKES:;
#LABELS:0.000=Song Start;
#BGCHANGES:;
#KEYSOUNDS:;
#ATTACKS:
;

//---------------dance-single - ----------------
#NOTEDATA:;
#CHARTNAME:;
#STEPSTYPE:dance-single;
#DESCRIPTION:;
#CHARTSTYLE:;
#DIFFICULTY:Hard;
#METER:11;
#RADARVALUES:0.409826,0.521033,0.046521,0.031014,0.074950,555.000000,546.000000,9.000000,6.000000,0.000000,0.000000,0.000000,0.000000,0.000000,0.409826,0.521033,0.046521,0.031014,0.074950,555.000000,546.000000,9.000000,6.000000,0.000000,0.000000,0.000000,0.000000,0.000000;
#CREDIT:;
#NOTES:
// measure 0
0000
0000
0000
0000
,  // measure 1
0000
0000
0000
0000
,  // measure 2
0000
0000
0000
0000
,  // measure 3
0100
0010
0001
0100
0001
0100
1000
0000
,  // measure 4
0010
0000
0000
0100
0000
0000
0001
0000
0000
0010
0000
0000
0100
0000
0000
0000
,  // measure 5
0001
0000
0000
0010
0000
0000
0100
0000
0000
0001
0000
0000
0010
0000
0000
0000
,  // measure 6
0100
0000
0000
0010
0000
0000
0100
0000
0000
0001
0000
0000
0010
0000
0000
0000
,  // measure 7
1000
0000
0000
0001
0000
0000
0100
0000
0000
0000
0010
0000
0100
0000
0001
0000
,  // measure 8
0100
0010
0001
0100
0000
0000
0100
0001
,  // measure 9
0100
0001
0100
1000
0000
0100
0001
0010
,  // measure 10
0000
0001
0100
0010
0000
0001
0100
1000
,  // measure 11
0100
0000
0010
0000
0000
0001
1000
0100
,  // measure 12
0100
0010
0001
0100
0000
0100
0010
0001
,  // measure 13
1000
0001
0100
0001
0000
0100
0010
0001
,  // measure 14
0100
0001
0100
1000
0000
0010
0001
0200
,  // measure 15
0000
0000
0000
0310
0000
0001
0010
0100
,  // measure 16
0001
0000
0100
0000
0010
0000
0001
0100
,  // measure 17
0000
0100
0000
0010
0000
0100
0001
0100
,  // measure 18
0010
0000
0100
0000
0010
0000
0100
0001
,  // measure 19
0000
0100
0000
0010
0000
0001
0100
1000
,  // measure 20
0100
0001
0010
0000
0010
0100
0000
0001
,  // measure 21
0000
0000
0100
0000
0001
0000
0010
0000
0000
0000
0000
0000
0100
0001
0100
0002
,  // measure 22
0000
0000
0000
0000
0000
0000
0000
0003
,  // measure 23
0100
1000
0001
0100
0001
0010
0100
0000
,  // measure 24
0010
0000
0100
0000
0000
0100
0001
0000
,  // measure 25
0000
0100
0001
0010
0000
0001
0100
0000
,  // measure 26
0000
0010
0001
0100
0000
0001
0100
0000
,  // measure 27
0100
0010
0001
0100
0001
0100
1000
0000
,  // measure 28
0100
0000
0010
0000
0001
0100
0010
0000
,  // measure 29
0010
0100
0001
0100
0010
0001
0100
0000
,  // measure 30
0001
0100
0010
1000
0001
0100
0010
0000
,  // measure 31
0100
0010
0001
0100
0001
1000
0100
0000
,  // measure 32
0010
0000
0100
0000
0001
0010
0100
0000
,  // measure 33
0010
0100
0001
1000
0001
0010
0100
0000
,  // measure 34
0010
0100
0001
1000
0001
0010
0100
0000
,  // measure 35
0100
0010
0001
1000
0001
0100
0010
0000
,  // measure 36
0100
0000
0010
0000
0001
0100
1000
0000
,  // measure 37
0010
0100
0001
0100
0001
0100
1000
0000
,  // measure 38
0010
0001
0100
0001
0100
1000
0100
0000
,  // measure 39
0010
0000
0001
0000
1000
0000
0001
0000
0100
0001
0010
0100
0001
0010
0100
0000
,  // measure 40
0200
0000
0000
0000
0300
0010
0100
0000
,  // measure 41
0000
0010
1000
0100
0000
0001
0100
0000
,  // measure 42
0000
0001
0100
0010
0000
0001
0100
0000
,  // measure 43
0010
0100
0010
0001
0100
0001
0100
0000
,  // measure 44
0000
0000
1000
0000
0000
0001
0100
0000
,  // measure 45
0000
0010
0001
0100
0000
0100
0010
0000
,  // measure 46
0000
0001
0100
0001
0000
0100
0010
0000
,  // measure 47
1000
0000
0001
0000
0100
0000
0010
0001
0100
0001
0100
0010
1000
0100
0001
0100
,  // measure 48
0010
0100
0001
1000
0000
0010
0100
0001
,  // measure 49
0010
0100
0010
0100
0000
0100
0010
0001
,  // measure 50
0100
0001
0100
1000
0000
0010
0001
0200
,  // measure 51
0000
0000
0000
0000
0300
0000
0010
0000
0000
0000
0100
0000
0001
0000
1000
0100
,  // measure 52
0010
0001
0100
1000
0000
0100
0010
0001
,  // measure 53
1000
0001
0100
1000
0000
0001
1000
0001
,  // measure 54
0100
0010
1000
0100
0001
0010
0010
0001
,  // measure 55
0100
0000
0000
0000
0000
0000
0100
0000
0010
0100
0001
0000
1000
0000
0010
0000
,  // measure 56
0101
0000
0100
0000
0010
0000
0100
0001
,  // measure 57
0000
0100
0000
0010
0000
0001
1000
0100
,  // measure 58
0100
0000
0010
0000
0001
0000
0100
0010
,  // measure 59
0000
0001
0000
1000
0000
0100
0010
0001
,  // measure 60
1000
0001
0100
0000
0010
0100
0000
0010
,  // measure 61
0000
0000
0100
0000
0001
0000
0000
0000
0010
0000
0000
0000
0100
0001
1000
0002
,  // measure 62
0000
0000
0000
0003
,  // measure 63
0100
0010
0001
1000
0001
0100
0010
0000
,  // measure 64
0010
0000
0100
0000
0000
0100
0001
0000
,  // measure 65
0000
0100
0010
0100
0000
0001
1000
0000
,  // measure 66
0000
0100
0001
0010
0000
0100
0001
0000
,  // measure 67
0100
0010
0001
0100
0001
0100
1000
0000
,  // measure 68
0110
0000
0001
0000
0000
0100
1000
0000
,  // measure 69
0000
0100
0001
0010
0000
0100
0001
0000
,  // measure 70
0000
1000
0100
0001
0000
0010
0100
0000
,  // measure 71
0001
1000
0100
0001
0100
0001
0010
0000
,  // measure 72
0010
0000
0001
0000
0100
1000
0100
0000
,  // measure 73
0100
0010
0001
1000
0001
0010
0100
0000
,  // measure 74
0010
0100
0001
1000
0001
0010
0100
0000
,  // measure 75
0010
0100
0001
1000
0001
0010
0100
0000
,  // measure 76
0010
0000
0100
0000
0001
1000
0100
0000
,  // measure 77
0001
0100
0001
0010
0100
0001
1000
0000
,  // measure 78
0100
0010
0001
0100
0001
1000
0010
0000
,  // measure 79
0110
0000
0000
0000
0110
0000
0000
0000
0100
0010
0100
0000
0001
1000
0100
0000
,  // measure 80
0101
0000
0110
0000
0000
0001
0100
0000
,  // measure 81
0000
0010
0100
0001
0000
1000
0100
0000
,  // measure 82
0000
0001
0100
1000
0000
0010
0100
0000
,  // measure 83
0100
0010
0001
0100
0001
0100
2000
0000
,  // measure 84
0000
0000
0100
0000
0000
0001
3010
0000
,  // measure 85
0000
0000
0010
0000
0100
0000
0001
0000
0000
0000
0010
0000
0100
0000
0010
0100
,  // measure 86
0001
0000
0010
0100
0001
0000
0010
0000
0000
0000
0100
0000
0010
0000
0000
0000
,  // measure 87
0110
0000
0000
0000
0110
0000
0000
0000
0001
0100
0010
0000
1000
0000
0010
0100
,  // measure 88
0010
0000
0100
0000
0000
0001
0010
0000
,  // measure 89
0000
0000
0100
0001
0010
0000
0100
0000
0000
0000
0010
0000
0100
0000
0000
0000
,  // measure 90
0000
0000
0100
0001
0010
0000
0100
0000
0000
0000
0100
0000
0010
0000
0000
0000
,  // measure 91
0100
0010
0001
0100
0001
0100
1000
0000
,  // measure 92
0000
0000
0001
0000
0000
0100
1000
0000
,  // measure 93
0000
0100
0010
0100
0000
0010
0100
0000
,  // measure 94
0000
0001
0100
1000
0000
0100
0010
0000
,  // measure 95
0100
0010
0001
1000
0001
0100
1000
0000
,  // measure 96
1001
0000
0000
0000
;
