#VERSION:0.83;
#TITLE:lemonlime;
#SUBTITLE:;
#ARTIST:Purity Ring;
#TITLETRANSLIT:;
#SUBTITLETRANSLIT:;
#ARTISTTRANSLIT:;
#GENRE:;
#ORIGIN:;
#CREDIT:;
#BANNER:;
#BACKGROUND:;
#PREVIEWVID:;
#JACKET:;
#CDIMAGE:;
#DISCIMAGE:;
#LYRICSPATH:;
#CDTITLE:;
#MUSIC:purity ring - lemonlime (official lyric video).ogg;
#OFFSET:0.000000;
#SAMPLESTART:100.059883;
#SAMPLELENGTH:12.000000;
#SELECTABLE:YES;
#BPMS:0.000=120.000,
403.000=85.000;
#STOPS:0.000=0.500;
#DELAYS:;
#WARPS:;
#TIMESIGNATURES:0.000=4=4;
#TICKCOUNTS:0.000=4;
#COMBOS:0.000=1;
#SPEEDS:0.000=1.000=0.000=0;
#SCROLLS:0.000=1.000;
#FAKES:;
#LABELS:0.000=Song Start;
#BGCHANGES:;
#KEYSOUNDS:;
#ATTACKS:
;

//---------------dance-single - ----------------
#NOTEDATA:;
#CHARTNAME:;
#STEPSTYPE:dance-single;
#DESCRIPTION:;
#CHARTSTYLE:;
#DIFFICULTY:Hard;
#METER:11;
#RADARVALUES:0.395058,0.413815,0.000000,0.038609,0.091698,573.000000,573.000000,0.000000,8.000000,0.000000,0.000000,0.000000,0.000000,0.000000,0.395058,0.413815,0.000000,0.038609,0.091698,573.000000,573.000000,0.000000,8.000000,0.000000,0.000000,0.000000,0.000000,0.000000;
#CREDIT:;
#NOTES:
// measure 0
0000
0000
0000
0000
,  // measure 1
0000
0000
0000
0000
,  // measure 2
0000
0000
0000
0000
,  // measure 3
0000
0000
0000
0000
0000
0001
0100
0010
,  // measure 4
0000
0000
0100
0000
0000
0000
0001
0010
,  // measure 5
0000
0100
0001
0010
0000
0010
0001
0100
,  // measure 6
0000
0000
0010
0000
0000
0001
0100
1000
,  // measure 7
0000
0001
1000
0100
0000
0001
1000
0100
,  // measure 8
0000
0000
0000
0000
0010
0000
0010
0100
0000
0001
1000
0000
0100
0000
0010
0000
,  // measure 9
0000
0000
1000
0100
0000
0010
0100
0001
,  // measure 10
0000
0000
0000
0000
0010
0000
1000
0001
0000
0010
0100
0000
0010
0000
0200
0000
,  // measure 11
0000
0000
0000
0000
0300
0001
1000
0100
,  // measure 12
0001
0100
0010
0001
1000
0001
0100
0000
,  // measure 13
0100
0010
0001
0100
0001
0100
1000
0001
,  // measure 14
0010
0100
0001
1000
0001
0010
0100
0000
,  // measure 15
0010
0001
0100
0010
0001
0100
0001
0100
,  // measure 16
0020
0000
0000
0000
0030
0000
0001
0010
,  // measure 17
0000
0001
0000
0100
0000
0010
0000
0200
,  // measure 18
0000
0000
0000
0000
0300
0010
0100
0001
,  // measure 19
0000
0000
0010
0100
0000
0000
0000
0100
,  // measure 20
0000
0000
0001
0000
0000
0000
0010
0000
0100
0000
0001
1000
0000
0100
0001
0000
,  // measure 21
0000
0100
0000
0010
0000
0010
0001
0100
,  // measure 22
0000
0000
0000
0000
0010
0000
0100
0001
0000
1000
0200
0000
0000
0000
0000
0000
,  // measure 23
0000
0000
0000
0000
0300
0010
0001
0100
,  // measure 24
0000
0000
0000
0000
0100
0000
0010
0100
0000
0001
1000
0000
0100
0000
0010
0000
,  // measure 25
0000
0001
0000
0100
0000
0010
0001
0100
,  // measure 26
0000
0000
0000
0000
0100
0000
0010
0100
0000
0001
1000
0000
0010
0000
0001
0000
,  // measure 27
0000
0001
0000
0100
0000
0001
0010
0100
,  // measure 28
0000
0000
0000
0000
0001
0000
0100
0010
0000
0001
0100
0000
0010
0000
0100
0000
,  // measure 29
0000
0001
0000
0100
0000
0010
0001
0100
,  // measure 30
0000
0000
0000
0000
0100
0000
0010
0001
0000
0100
0001
0000
0000
0000
0000
0000
,  // measure 31
0000
0000
0000
0000
0000
0010
0001
2000
,  // measure 32
0000
0000
0000
0000
0000
3000
0100
1000
,  // measure 33
0000
0001
0000
0100
0000
0010
0001
0100
,  // measure 34
0000
0000
0000
0000
0100
0000
0010
0100
0000
0001
1000
0000
0100
0000
0001
0000
,  // measure 35
0000
0100
0000
0010
0000
0001
0100
1000
,  // measure 36
0000
0000
0000
0000
0100
0000
0010
0100
0000
0001
1000
0000
0010
0000
0001
0000
,  // measure 37
0000
0010
0001
0100
0000
0001
0100
1000
,  // measure 38
0000
0000
0000
0000
0100
0000
0010
0100
0000
0001
1000
0000
0100
0000
0001
0000
,  // measure 39
0000
0010
0001
0100
0000
0001
1000
0100
,  // measure 40
0100
0010
0001
0100
0001
1000
0100
0010
,  // measure 41
0001
0100
0001
0100
0010
0001
0100
0001
,  // measure 42
0100
0010
0001
0100
0001
0100
1000
0100
,  // measure 43
0010
0001
0100
0001
0100
0010
0001
0100
,  // measure 44
0001
0100
0010
0001
1000
0001
0100
0010
,  // measure 45
0001
0100
0001
0100
0010
0001
1000
0001
,  // measure 46
0100
0010
0001
0100
0001
0100
0010
0001
,  // measure 47
0100
0001
0100
0010
0001
0100
0001
0100
,  // measure 48
1000
0010
0100
0001
0000
0100
0000
0010
,  // measure 49
0001
1000
0001
0100
0000
0010
0000
0001
,  // measure 50
1000
0001
0100
0010
0000
0001
0000
0100
,  // measure 51
0010
0001
0100
1000
0100
0001
0010
0000
,  // measure 52
0010
0000
0100
0001
0000
0010
0000
0100
,  // measure 53
0000
0000
0000
0010
0000
0010
0001
0100
,  // measure 54
0000
0000
0100
0000
0001
0000
0010
0200
,  // measure 55
0000
0000
0000
0000
0300
0010
0001
0100
,  // measure 56
0000
0000
0100
1000
0000
0100
0000
0010
,  // measure 57
0000
0000
0001
0100
0000
0010
0001
0100
,  // measure 58
0000
0001
0000
0010
0001
0100
0000
0001
,  // measure 59
0000
0100
0000
0010
0100
0001
0010
0100
,  // measure 60
2000
0000
0000
0000
3000
0001
0100
1000
,  // measure 61
0000
0010
0001
0100
0000
0001
0100
1000
,  // measure 62
0000
0010
0001
0100
0000
0001
1000
0100
,  // measure 63
0000
0010
0000
0010
0100
0010
0000
0000
,  // measure 64
0100
0000
0010
0100
0000
0100
0000
0010
,  // measure 65
0000
0000
0100
0001
0000
0010
0000
0001
,  // measure 66
0000
0100
0000
0000
0001
0000
1000
0100
,  // measure 67
0000
0020
0000
0000
0000
0000
0000
0000
,  // measure 68
0000
0000
0000
0000
0030
0010
0100
0001
,  // measure 69
0000
0000
0000
0000
0010
0000
0100
0001
0000
0010
1000
0000
0001
0000
0100
0000
,  // measure 70
0000
0100
0000
0010
0000
0001
0100
1000
,  // measure 71
0000
0000
0000
0000
0100
0000
0100
0010
0000
0001
1000
0000
0010
0000
0001
0000
,  // measure 72
0000
0001
0000
0100
0000
0010
0001
0100
,  // measure 73
0000
0000
0000
0000
0100
0000
0010
0100
0000
0001
1000
0000
0100
0000
0001
0000
,  // measure 74
0000
0100
0010
0100
0000
0001
1000
0100
,  // measure 75
0000
0000
0000
0000
0010
0000
0100
0001
0000
0010
0100
0000
0001
0000
0010
0000
,  // measure 76
0000
0001
0100
0010
0000
0001
1000
0100
,  // measure 77
0000
0000
0000
0000
0010
0000
0100
0001
0000
1000
0100
0000
0001
0000
0010
0000
,  // measure 78
0000
0001
0000
0100
0000
0001
0010
0100
,  // measure 79
0000
0000
0000
0000
0010
0000
0100
0001
0000
0010
0100
0000
1000
0000
0100
0000
,  // measure 80
0000
0001
0000
0010
0000
1000
0001
0100
,  // measure 81
0000
0000
0000
0000
0100
0000
0010
0100
0000
0001
1000
0000
0001
0000
0010
0000
,  // measure 82
0000
0100
0001
0010
0000
0001
1000
0100
,  // measure 83
0000
0000
0000
0000
0001
0000
0100
0010
0000
0001
0100
0000
0010
0000
0001
0000
,  // measure 84
0000
0010
0001
0100
0001
1000
0100
0000
,  // measure 85
0010
0001
0100
0010
0001
0100
0001
1000
,  // measure 86
0100
0100
0010
0100
0010
0100
1000
0100
,  // measure 87
0100
0010
0100
0010
0100
0001
0100
0010
,  // measure 88
0001
1000
0001
0100
0010
0001
0100
0001
,  // measure 89
0100
0010
0001
0100
0001
0100
0010
0100
,  // measure 90
1000
0100
0010
0100
0001
0100
0010
0001
,  // measure 91
1000
0001
0100
0010
0001
0100
0001
0100
,  // measure 92
0010
0001
1000
0001
0100
0010
0100
0001
,  // measure 93
0010
0001
0100
0010
0000
0001
1000
0100
,  // measure 94
0010
0100
0001
0010
0000
0001
0000
0100
,  // measure 95
0010
0001
0100
1000
0000
0001
0100
1000
,  // measure 96
0010
0001
1000
0100
0000
0001
0000
0100
,  // measure 97
0010
0001
0100
1000
0000
0001
0100
1000
,  // measure 98
0010
0001
1000
0100
0000
0001
0000
0100
,  // measure 99
0010
0001
0100
0010
0000
0001
1000
0100
,  // measure 100
0010
0100
0000
0010
0000
0001
0000
0100
;
