#VERSION:0.83;
#TITLE:last of a dying breed;
#SUBTITLE:;
#ARTIST:Joji;
#TITLETRANSLIT:;
#SUBTITLETRANSLIT:;
#ARTISTTRANSLIT:;
#GENRE:;
#ORIGIN:;
#CREDIT:;
#BANNER:;
#BACKGROUND:;
#PREVIEWVID:;
#JACKET:;
#CDIMAGE:;
#DISCIMAGE:;
#LYRICSPATH:;
#CDTITLE:;
#MUSIC:Joji - Last of a Dying Breed (Visualizer).ogg;
#OFFSET:0.000000;
#SAMPLESTART:100.059883;
#SAMPLELENGTH:12.000000;
#SELECTABLE:YES;
#BPMS:0.000=166.000;
#STOPS:;
#DELAYS:;
#WARPS:;
#TIMESIGNATURES:0.000=4=4;
#TICKCOUNTS:0.000=4;
#COMBOS:0.000=1;
#SPEEDS:0.000=1.000=0.000=0;
#SCROLLS:0.000=1.000;
#FAKES:;
#LABELS:0.000=Song Start;
#BGCHANGES:;
#KEYSOUNDS:;
#ATTACKS:
;

//---------------dance-single - ----------------
#NOTEDATA:;
#CHARTNAME:;
#STEPSTYPE:dance-single;
#DESCRIPTION:;
#CHARTSTYLE:;
#DIFFICULTY:Hard;
#METER:11;
#RADARVALUES:0.618487,0.554976,0.000000,0.000000,0.000000,649.000000,649.000000,0.000000,0.000000,0.000000,0.000000,0.000000,0.000000,0.000000,0.618487,0.554976,0.000000,0.000000,0.000000,649.000000,649.000000,0.000000,0.000000,0.000000,0.000000,0.000000,0.000000,0.000000;
#CREDIT:;
#NOTES:
// measure 0
0000
0000
0000
0000
,  // measure 1
0000
0000
0000
0000
,  // measure 2
0000
0000
0000
0000
,  // measure 3
0000
0000
0000
0000
,  // measure 4
0000
0000
0000
0000
,  // measure 5
0000
0000
0000
0000
,  // measure 6
0000
0000
0000
0000
,  // measure 7
0000
0000
0000
0000
,  // measure 8
0000
0000
0000
0000
,  // measure 9
0000
0000
0000
0000
,  // measure 10
0000
0000
0000
0000
,  // measure 11
0000
0000
0000
0000
,  // measure 12
0000
0000
0000
0000
,  // measure 13
0000
0000
0000
0000
,  // measure 14
0000
0000
0000
0000
,  // measure 15
0000
0000
0000
0000
,  // measure 16
0100
0010
1000
0001
0100
0100
0010
0100
,  // measure 17
0001
0010
0100
0001
0010
0010
0001
0100
,  // measure 18
1000
0010
0100
0001
1000
0001
0010
0100
,  // measure 19
0100
0010
0001
0100
0001
0100
1000
0100
,  // measure 20
0010
0100
0001
0100
0001
0100
0001
0100
,  // measure 21
1000
0001
0100
0010
0100
0001
0100
0001
,  // measure 22
0010
0100
0001
0100
0001
0100
1000
0100
,  // measure 23
0010
0100
0010
0100
0010
0100
0010
0100
,  // measure 24
0010
0010
0010
0010
0010
1000
0010
0100
,  // measure 25
0010
0100
0010
0100
1000
0100
0100
0010
,  // measure 26
0100
0010
0100
0010
0100
0010
0100
0001
,  // measure 27
0100
0001
0100
0010
0100
1000
0100
0010
,  // measure 28
0100
0010
0001
0100
0001
0100
0001
0100
,  // measure 29
0010
0001
0100
0001
0100
1000
0010
0100
,  // measure 30
0010
0100
0010
0100
1000
0100
0010
0100
,  // measure 31
0001
0100
0010
0100
0001
0100
0001
0100
,  // measure 32
1000
0010
0100
0010
0100
0001
0100
0001
,  // measure 33
0100
0010
0001
0100
0001
0100
0010
0001
,  // measure 34
0100
0001
0100
1000
0100
0010
0100
0010
,  // measure 35
0010
0100
0010
0010
0001
0100
0010
0100
,  // measure 36
0010
0100
0010
0100
1000
0100
0010
0100
,  // measure 37
0010
0100
0010
0100
0010
0100
1000
1000
,  // measure 38
1000
0100
0010
0010
0100
0100
0100
1000
,  // measure 39
0100
0100
0010
0001
0100
0001
0100
0010
,  // measure 40
0100
0010
0100
0010
0100
0001
0100
0001
,  // measure 41
0100
1000
0100
0010
0100
0010
0100
0010
,  // measure 42
0100
0001
0100
0001
0100
0010
0001
1000
,  // measure 43
0001
0100
0010
0001
0100
0001
0100
0010
,  // measure 44
0100
0010
0100
0001
0100
0001
0100
0010
,  // measure 45
0001
0100
0001
0100
1000
0100
0010
0100
,  // measure 46
0010
0100
0001
0010
0010
0001
1000
0001
,  // measure 47
0100
0010
0001
0100
0001
0100
0010
0001
,  // measure 48
0100
0001
0100
0010
0001
1000
0001
0100
,  // measure 49
0010
0001
0100
0001
0100
0010
0001
0100
,  // measure 50
0001
0100
0010
0100
0001
0100
0001
0100
,  // measure 51
1000
0010
0001
0100
0001
0100
0010
0001
,  // measure 52
0100
0010
0001
0100
0001
1000
0100
0100
,  // measure 53
0010
0001
0100
0010
0001
0100
0001
0100
,  // measure 54
0010
0001
0100
0001
0100
0010
0001
0100
,  // measure 55
0001
0100
0010
0001
0100
0001
0100
1000
,  // measure 56
0100
0010
0100
0010
0100
0010
0100
1000
,  // measure 57
0100
0010
0100
0010
0100
0010
0100
0010
,  // measure 58
0100
0010
0100
0010
0100
0010
0100
0010
,  // measure 59
0100
0010
0100
0010
0100
0010
0100
0100
,  // measure 60
1000
0100
0010
0100
0010
0100
0100
0010
,  // measure 61
0100
0100
0010
0001
0100
0010
0100
0001
,  // measure 62
0100
1000
0100
0010
0100
0001
0100
0001
,  // measure 63
0100
0010
0001
0100
0010
0100
0001
0100
,  // measure 64
1000
0100
0001
0100
0010
0001
0100
0001
,  // measure 65
0100
0010
0001
1000
0001
0100
0010
0001
,  // measure 66
0100
0001
0100
0010
0001
0100
0010
0100
,  // measure 67
0010
0001
0100
0001
0100
0010
0100
1000
,  // measure 68
0100
0010
0100
0010
0100
0010
0100
0010
,  // measure 69
0100
0100
1000
1000
0100
0100
0010
0001
,  // measure 70
0100
0001
0100
0010
0001
0100
0001
0100
,  // measure 71
0010
0001
1000
0001
0100
0001
0100
0010
,  // measure 72
0001
0100
0001
0100
0010
0001
0100
0001
,  // measure 73
0100
0010
0001
0100
0001
0100
1000
0100
,  // measure 74
0010
0001
0100
0001
0100
0010
0001
0100
,  // measure 75
0001
0100
0010
0001
1000
0001
0100
0010
,  // measure 76
0001
0100
0001
0100
0010
0001
0100
0001
,  // measure 77
0100
0010
0001
0100
0001
0100
0010
0001
,  // measure 78
1000
0001
0100
0010
0001
0100
0001
0100
,  // measure 79
0010
0001
0100
0001
0100
0010
0001
1000
,  // measure 80
0001
0100
0010
0001
0100
0001
0100
1000
,  // measure 81
0100
0001
0100
0001
1000
0001
0010
0100
,  // measure 82
0100
0010
0001
0100
0001
0100
0010
0001
,  // measure 83
1000
0001
0100
0010
0001
0100
0001
0100
,  // measure 84
0010
0100
0001
0100
0001
0100
0001
0100
,  // measure 85
0010
0001
1000
0001
0100
0010
0001
0100
,  // measure 86
0001
0100
0010
0001
0100
0001
1000
0010
,  // measure 87
0100
0010
0010
0010
0100
0100
0010
0100
,  // measure 88
1000
0100
0010
0001
0100
0001
0100
0010
,  // measure 89
0001
1000
0001
0100
0010
0001
0100
0001
,  // measure 90
0010
0100
0010
0100
0001
0100
1000
0100
,  // measure 91
0010
0100
0010
0100
0001
0100
0001
0100
,  // measure 92
0010
0001
1000
0001
0100
0001
0010
0100
,  // measure 93
0010
0100
0001
0100
0001
0100
0010
0100
,  // measure 94
0001
0100
0001
0100
0001
0100
0010
0001
,  // measure 95
1000
0001
0100
0010
0001
0100
0001
0100
,  // measure 96
1000
0001
0000
0100
0000
0010
0000
0001
,  // measure 97
0000
0100
0000
1000
0000
0001
0000
0100
;
