#VERSION:0.83;
#TITLE:la nights;
#SUBTITLE:;
#ARTIST:Trap Dickey;
#TITLETRANSLIT:;
#SUBTITLETRANSLIT:;
#ARTISTTRANSLIT:;
#GENRE:;
#ORIGIN:;
#CREDIT:;
#BANNER:;
#BACKGROUND:;
#PREVIEWVID:;
#JACKET:;
#CDIMAGE:;
#DISCIMAGE:;
#LYRICSPATH:;
#CDTITLE:;
#MUSIC:Trap Dickey - LA Nights (Official Music Video).ogg;
#OFFSET:0.000000;
#SAMPLESTART:100.059883;
#SAMPLELENGTH:12.000000;
#SELECTABLE:YES;
#BPMS:0.000=125.000;
#STOPS:0.000=0.250;
#DELAYS:;
#WARPS:;
#TIMESIGNATURES:0.000=4=4;
#TICKCOUNTS:0.000=4;
#COMBOS:0.000=1;
#SPEEDS:0.000=1.000=0.000=0;
#SCROLLS:0.000=1.000;
#FAKES:;
#LABELS:0.000=Song Start;
#BGCHANGES:0.000=Trap Dickey - LA Nights (Official Music Video).mp4=1.000=0=0=1=====,
99999=-nosongbg-=1.000=0=0=0 // don't automatically add -songbackground-
;
#KEYSOUNDS:;
#ATTACKS:
;

//---------------dance-single - ----------------
#NOTEDATA:;
#CHARTNAME:;
#STEPSTYPE:dance-single;
#DESCRIPTION:;
#CHARTSTYLE:;
#DIFFICULTY:Hard;
#METER:14;
#RADARVALUES:0.573865,0.614093,0.086855,0.000000,0.691223,555.000000,543.000000,12.000000,0.000000,0.000000,0.000000,0.000000,0.000000,0.000000,0.573865,0.614093,0.086855,0.000000,0.691223,555.000000,543.000000,12.000000,0.000000,0.000000,0.000000,0.000000,0.000000,0.000000;
#CREDIT:;
#NOTES:
// measure 0
0000
0000
0000
0000
,  // measure 1
0000
0000
0000
0000
,  // measure 2
0000
0000
0000
0000
,  // measure 3
0000
0000
0000
0000
,  // measure 4
0000
0000
0000
0000
,  // measure 5
0000
0000
0000
0000
,  // measure 6
0000
0000
0000
0100
,  // measure 7
0000
0010
0000
0000
0001
0100
0010
0001
,  // measure 8
0100
0010
0100
0001
,  // measure 9
0010
0000
0100
0000
0010
1001
0000
1001
,  // measure 10
1000
0001
0100
0010
,  // measure 11
0001
0000
0100
0000
0010
1001
0000
1001
,  // measure 12
0001
0100
0010
0100
,  // measure 13
0001
0000
0100
0000
0010
1001
0000
1001
,  // measure 14
0010
0000
0001
0100
0001
0100
1000
0100
,  // measure 15
0010
0000
0000
0001
0000
1001
0100
1001
,  // measure 16
0100
0000
0010
0000
0100
0000
0001
0000
1000
0000
0001
0000
0010
0000
0100
0000
0001
0000
0010
0000
0000
0100
0000
0000
,  // measure 17
0000
0000
0100
0010
0001
0010
0100
0000
0001
0000
0010
0000
0100
0000
1000
0000
,  // measure 18
0100
0000
0001
0000
1000
0000
0100
0000
0000
0010
0000
0000
0100
0000
0001
0000
0100
0000
0001
0000
0000
1000
0000
0000
,  // measure 19
0000
0000
0100
0000
0001
0000
0100
0000
0001
0000
0010
0000
0100
0000
0000
0000
0000
0000
0010
0000
0000
0100
0000
0000
,  // measure 20
0001
0000
1000
0000
0100
0001
0000
0010
0100
0000
0010
0000
0001
0000
0010
0000
,  // measure 21
0100
0000
0001
1000
0100
0001
0010
0000
0100
0000
0001
0000
0010
0000
0100
0000
,  // measure 22
0100
0000
0010
0000
0001
0000
1000
0000
0001
0000
0100
0000
0010
0000
0000
0001
0000
0000
0100
0000
0000
0010
0000
0000
,  // measure 23
0100
0001
0000
1000
0100
0000
0010
0000
0010
0000
0001
0000
0100
0000
1000
0000
,  // measure 24
0100
0001
0000
0010
0100
0000
0010
0000
0001
0000
0100
0000
1000
0000
0000
0100
,  // measure 25
0001
1000
0001
0000
0100
0000
0010
0000
0001
0000
0100
0000
1000
0000
0100
0000
,  // measure 26
0010
0000
0100
0000
0001
0000
1000
0000
0001
0000
0010
0000
0100
0000
0000
0010
0000
0000
0100
0000
0000
0010
0000
0000
,  // measure 27
0100
0000
0000
0001
0000
0000
1000
0000
0000
0000
0000
0000
0100
0000
0000
0000
0010
0000
0000
0000
0100
0000
0000
0000
0001
0000
0000
0000
0000
0000
0010
0000
0000
0000
0000
0000
0100
0000
0000
0000
0000
0000
0001
0000
0000
0000
0000
0000
,  // measure 28
0100
0010
0001
1000
0001
0100
0001
0100
0010
0100
0000
0001
,  // measure 29
0100
0000
0010
0000
0001
0000
1000
0000
0001
0000
0100
0000
1000
0000
0000
0010
0000
0000
0001
0000
0000
0100
0000
0000
,  // measure 30
0010
0000
0100
0000
0001
0000
1000
0000
0001
0000
0010
0000
0100
0000
0000
0001
0000
0000
0100
0000
0000
0010
0000
0000
,  // measure 31
1000
0001
0100
0001
0100
0010
0001
0100
0010
0100
1000
0001
,  // measure 32
0100
0010
0001
1000
0001
0100
0010
0001
0100
0001
1000
0100
,  // measure 33
0001
0100
0010
0001
0100
0001
0100
0010
0001
0100
0001
1000
,  // measure 34
0100
0100
0010
0001
0100
0001
0100
0010
0001
0100
0001
0100
,  // measure 35
1000
0010
0100
0001
1000
0001
0010
0100
0001
0100
0001
0010
,  // measure 36
0100
0001
0100
0010
0001
0100
0010
0001
0100
0001
0100
0010
,  // measure 37
0001
0100
0001
0100
0010
0001
0100
1000
0100
0010
0001
0100
,  // measure 38
0001
0100
0010
0001
0100
0001
0100
0010
0001
0100
0001
0100
,  // measure 39
0010
0000
0000
0000
0001
0000
0000
0000
1000
0000
0000
0000
0001
0000
0000
0000
0100
0000
0000
0000
0010
0000
0000
0000
0001
0000
0000
0000
0000
0000
0100
0000
0000
0000
0000
0000
0010
0000
0000
0100
0000
0000
0001
0000
0000
0000
0000
0000
,  // measure 40
1000
0000
0010
0000
0100
0000
0001
0000
0010
0000
0100
0000
0001
0000
0100
0000
0001
0000
1000
0000
0000
0100
0000
0000
,  // measure 41
0000
0000
0010
0100
0001
1000
0001
0000
0010
0000
0001
0000
0100
0000
1000
0000
,  // measure 42
0010
0000
0001
0000
0100
0000
0010
0000
0001
1000
0000
0000
0001
0000
0100
0000
0010
0000
0100
0000
0000
0001
0000
0000
,  // measure 43
0100
0000
0010
0000
0100
0000
0001
0000
1000
0000
0001
0000
0010
0000
0000
0000
0000
0000
0001
0000
0000
0010
0000
0000
,  // measure 44
0100
0000
0010
0000
0100
0001
0000
1000
0100
0000
0010
0000
0100
0000
0001
0000
,  // measure 45
0000
0000
0010
0100
0001
1000
0001
0000
0010
0000
0100
0000
0001
0000
0010
0000
,  // measure 46
0100
0000
0001
0000
1000
0000
0100
0000
0100
0000
0001
0000
0010
0000
0000
0100
0000
0000
0001
0000
0000
1000
0000
0000
,  // measure 47
0100
0010
0000
0100
0001
0000
0010
0000
0100
0000
0001
0000
1000
0000
0001
0000
,  // measure 48
1000
0000
0100
0000
0001
0010
0100
0000
0010
0000
0001
0000
0100
0000
1000
0000
,  // measure 49
0100
0000
0010
0100
0010
0000
0001
0000
0001
0000
1000
0000
0100
0000
0010
0000
,  // measure 50
0010
0100
0001
0000
0010
0100
0001
0000
1000
0000
0100
0000
0001
0000
0010
0000
,  // measure 51
0100
0000
0010
0100
0001
0000
1000
0000
0010
0000
0001
0000
0100
0000
1000
0000
,  // measure 52
0100
0000
0010
0000
0100
0000
0001
0000
0000
0010
0000
0000
0001
0000
0000
0100
0000
0000
1000
0000
0000
0100
0000
0000
,  // measure 53
0010
0000
0100
0000
0001
0000
0010
0000
0000
0010
0000
0000
0100
0000
0000
0001
0000
0000
1000
0000
0000
0100
0000
0000
,  // measure 54
0010
0000
0100
0000
0001
0000
0010
0000
0100
0000
0001
0000
0010
0000
0000
0100
0000
0000
0001
0000
0000
1000
0000
0000
,  // measure 55
0001
0000
1000
0000
0100
0000
0001
0000
0000
0000
0000
0000
0010
0000
0000
0000
0000
0000
1000
0000
0000
0001
0000
0000
,  // measure 56
0100
0000
0001
0000
0100
0000
0010
0000
0001
0000
1000
0000
0001
0000
0100
0000
0010
0000
1000
0000
0000
0100
0000
0000
,  // measure 57
0010
0000
0100
0001
1000
0001
0010
0000
0100
0000
0001
0000
0100
0000
0001
0000
,  // measure 58
0010
0000
0010
0000
0100
0000
0001
0000
0100
0000
0010
0000
1000
0000
0100
0000
0001
0000
0010
0000
0000
0100
0000
0000
,  // measure 59
0001
0000
0010
0000
0100
0000
0001
0000
1000
0000
0001
0000
0010
0000
0000
0000
0000
0000
0001
0000
0000
0100
0000
0000
,  // measure 60
0010
0000
0100
0000
0001
1000
0000
0100
0001
0000
0010
0000
1000
0000
0100
0000
,  // measure 61
0010
0000
0100
0001
1000
0001
0010
0000
0001
0000
0100
0000
0010
0000
0100
0000
,  // measure 62
0010
0000
0001
0000
1000
0000
0001
0000
0100
0000
0010
0000
0001
0000
0000
0100
0000
0000
0001
0000
0000
0100
0000
0000
,  // measure 63
0010
0100
0000
0010
0001
0000
0100
0000
0001
0000
1000
0000
0001
0000
0100
0000
,  // measure 64
1000
0100
0001
0100
,  // measure 65
0010
0000
0100
0000
0010
1001
0000
1001
,  // measure 66
0100
0010
0001
0100
,  // measure 67
0001
0000
0100
0000
0010
1001
0000
1001
;
