#VERSION:0.83;
#TITLE:l-o-v-e;
#SUBTITLE:;
#ARTIST:Yazida;
#TITLETRANSLIT:;
#SUBTITLETRANSLIT:;
#ARTISTTRANSLIT:;
#GENRE:;
#ORIGIN:;
#CREDIT:;
#BANNER:;
#BACKGROUND:;
#PREVIEWVID:;
#JACKET:;
#CDIMAGE:;
#DISCIMAGE:;
#LYRICSPATH:;
#CDTITLE:;
#MUSIC:L-O-V-E.ogg;
#OFFSET:0.000000;
#SAMPLESTART:100.059883;
#SAMPLELENGTH:12.000000;
#SELECTABLE:YES;
#BPMS:0.000=127.000;
#STOPS:;
#DELAYS:;
#WARPS:;
#TIMESIGNATURES:0.000=4=4;
#TICKCOUNTS:0.000=4;
#COMBOS:0.000=1;
#SPEEDS:0.000=1.000=0.000=0;
#SCROLLS:0.000=1.000;
#FAKES:;
#LABELS:0.000=Song Start;
#BGCHANGES:;
#KEYSOUNDS:;
#ATTACKS:
;

//---------------dance-single - ----------------
#NOTEDATA:;
#CHARTNAME:;
#STEPSTYPE:dance-single;
#DESCRIPTION:;
#CHARTSTYLE:;
#DIFFICULTY:Hard;
#METER:14;
#RADARVALUES:0.604598,0.581926,0.013226,0.006613,0.300882,640.000000,638.000000,2.000000,1.000000,0.000000,0.000000,0.000000,0.000000,0.000000,0.604598,0.581926,0.013226,0.006613,0.300882,640.000000,638.000000,2.000000,1.000000,0.000000,0.000000,0.000000,0.000000,0.000000;
#CREDIT:;
#NOTES:
// measure 0
0000
0000
0000
0000
,  // measure 1
0000
0000
0000
0000
,  // measure 2
0100
0000
0000
0001
0000
0000
0100
0000
0000
0010
0000
0000
0001
0000
0000
0100
,  // measure 3
1000
0000
0000
0100
0000
0000
0010
0000
0001
0000
1000
0000
0001
0000
0100
0000
,  // measure 4
1000
0000
0100
0001
0000
0000
0010
0000
0000
0100
0000
0000
0001
0000
0000
0010
,  // measure 5
0100
0000
0001
0000
0100
0000
0010
0000
0001
0000
1000
0000
0001
0000
0100
0010
,  // measure 6
1000
0000
0000
0010
0000
0000
0100
0000
0000
0010
0100
0000
0001
0000
0001
0100
,  // measure 7
1000
0010
0100
0010
0001
1000
0001
0100
,  // measure 8
1000
0000
0000
0100
0000
0000
0010
0000
0000
0001
0100
0000
0010
0000
0001
0100
,  // measure 9
1000
0000
0010
0000
0001
0000
0100
0000
0001
0000
0100
0000
0010
0000
0100
0001
,  // measure 10
1000
0000
0000
0100
0000
0000
0010
0000
0000
0001
0100
0000
0010
0000
0001
0100
,  // measure 11
1000
0000
0000
0001
0100
0000
0010
0000
0000
1000
0010
0000
0001
0000
0100
0000
,  // measure 12
1000
0001
0100
0010
0001
0100
0001
0000
,  // measure 13
0100
0000
0010
0000
0001
0000
1000
0000
0001
0000
0100
0000
1000
0000
0010
0001
,  // measure 14
0100
0010
0001
1000
0001
0100
1000
0000
,  // measure 15
0100
0000
0010
0000
0001
0000
1000
0000
0001
0000
0100
0000
1000
0000
0010
0001
,  // measure 16
0100
0000
0010
0000
0001
0000
1000
0000
0001
0000
0100
0000
1000
0000
0010
0001
,  // measure 17
0100
0000
0010
0000
0001
0000
1000
0000
0001
0000
0100
0000
0010
0000
0001
0100
,  // measure 18
1000
0001
1000
0001
0100
0010
0001
0100
,  // measure 19
1000
0001
0100
0010
0001
1000
0001
0100
,  // measure 20
1000
0000
0010
0000
0001
0000
0100
0000
0010
0000
0001
0000
0100
0000
0001
0010
,  // measure 21
0100
0000
0010
0000
0001
0000
1000
0000
0001
0000
0100
0000
0010
0000
0001
0100
,  // measure 22
1000
0000
0001
0000
0100
0000
0010
0000
0001
0000
0100
0000
0001
0000
0100
0010
,  // measure 23
1000
0000
0010
0000
0001
0000
1000
0000
0001
0000
0100
0000
0010
0000
0001
0100
,  // measure 24
1000
0000
0010
0000
0001
0000
1000
0000
0001
0000
0100
0000
0010
0000
0001
0100
,  // measure 25
1000
0000
0010
0000
0001
0000
1000
0000
0001
0000
0100
0000
0010
0000
0001
0100
,  // measure 26
1000
0000
0001
0000
1000
0000
0001
0000
0100
0000
0010
0000
0001
0000
0100
0001
,  // measure 27
0010
0000
0001
0000
0000
0000
0100
0000
0000
0000
0000
0000
0100
0010
0001
1000
,  // measure 28
0010
0010
0100
0010
0001
1000
0001
0100
,  // measure 29
1000
0000
0010
0000
0001
0000
1000
0000
0001
0000
0100
0000
0010
0001
0100
0000
,  // measure 30
1000
0000
0010
0000
0001
0000
1000
0000
0001
0000
0100
0000
0010
0001
0100
0000
,  // measure 31
0010
0000
0001
0000
1000
0000
0001
0000
0100
0000
0010
0000
0001
1000
0001
0100
,  // measure 32
1000
0000
0001
0000
0100
0000
0010
0000
0100
0000
0001
0010
0100
0000
0001
0100
,  // measure 33
1000
0000
0010
0100
0001
0000
0010
0000
0001
0000
1000
0000
0001
0000
0100
0010
,  // measure 34
1000
0000
0010
0000
0001
0000
0100
0000
0001
0000
0010
0000
0100
0000
0001
1000
,  // measure 35
0100
0000
0001
0000
0100
0000
0010
0000
0001
0000
0000
0100
1000
0000
0000
0000
,  // measure 36
0100
0000
0010
0000
0001
0000
1000
0000
0001
0000
0100
0000
0010
0000
0001
0100
,  // measure 37
1000
0000
0100
0001
0010
0000
0010
0000
0001
0000
0100
0000
1000
0000
0000
0000
,  // measure 38
0100
0000
0010
0000
0001
0000
1000
0000
0001
0000
0100
0000
0010
0000
0001
1000
,  // measure 39
0100
0000
0001
0000
1000
0000
0001
0000
0100
0000
0010
0000
1000
0100
0000
0100
,  // measure 40
0001
0010
0001
0100
0010
0001
0100
0001
,  // measure 41
0100
0000
0010
0000
0001
0000
1000
0000
0001
0000
0100
0000
0010
0000
0001
1000
,  // measure 42
0100
0000
0010
0000
0001
0000
1000
0000
0001
0000
0100
0000
0010
0000
0001
0100
,  // measure 43
1000
0010
0001
1000
0001
0100
1000
0000
,  // measure 44
0000
0000
0010
0000
0001
0000
1000
0000
0001
0000
0100
0000
0010
0000
1000
0001
,  // measure 45
0100
0000
0000
0010
0000
0000
0100
0000
0000
0010
0000
0000
0100
0000
0001
1000
,  // measure 46
0000
0000
0100
0000
0010
0000
0001
0000
1000
0000
0001
0000
0100
0000
0001
1000
,  // measure 47
0100
0000
0000
0010
0000
0000
0100
0000
0000
0001
0010
0000
1000
0000
0100
0000
,  // measure 48
0010
0010
0001
1000
0001
0100
1000
0000
,  // measure 49
0010
0000
0000
0000
0001
0000
0000
0000
0100
0000
0000
0000
0010
0000
0001
0100
,  // measure 50
1000
0010
0001
1000
0001
0100
0010
0001
,  // measure 51
0200
0000
0000
0000
0300
0001
0100
0010
,  // measure 52
0010
0000
0001
0000
0100
0000
0010
0000
0001
0000
1000
0000
0001
0000
0100
0010
,  // measure 53
1000
0000
0100
0000
0010
0000
0001
0000
0100
0000
0001
0000
0100
0000
0001
1000
,  // measure 54
0100
0000
0100
0000
0010
0000
0001
0000
1000
0000
0001
0000
0100
0000
0010
0100
,  // measure 55
1000
0000
0010
0000
0001
0000
1000
0000
0001
0000
0100
0000
0010
0000
0001
0100
,  // measure 56
1000
0000
0100
0000
0010
0000
0001
0000
1000
0000
0001
0000
0100
0000
0010
0001
,  // measure 57
0100
0000
0010
0000
0001
0000
1000
0000
0001
0000
0100
0000
0010
0000
0001
0100
,  // measure 58
1000
0000
0100
0000
0010
0000
0001
0000
0100
0000
1000
0000
0001
0000
0100
0010
,  // measure 59
0001
0100
0010
0001
0000
0100
0000
0010
,  // measure 60
0100
0000
0001
0000
0100
0000
0010
0000
0001
0000
0001
0000
1000
0000
0100
0010
,  // measure 61
0100
0000
0010
0000
0001
0000
1000
0000
0001
0000
0100
0000
0010
0000
1000
0100
,  // measure 62
0001
0000
0010
0000
0001
0000
0100
0000
0001
0000
0010
0000
0100
0000
0001
0100
,  // measure 63
1000
0001
1000
0001
0100
0000
0001
0000
,  // measure 64
1000
0000
0001
0000
1000
0000
0001
0000
0000
0000
0010
0000
0100
0000
0001
0100
,  // measure 65
1000
0000
0010
0000
0001
0000
0100
0000
0001
0000
0100
0000
0010
0000
0001
0100
,  // measure 66
1000
0000
0001
0000
0100
0000
0010
0000
0001
0000
0100
0000
0010
0000
0001
0100
,  // measure 67
1000
0010
0100
0010
0001
0100
0001
0100
,  // measure 68
1000
0000
0010
0000
0001
0000
1000
0000
0001
0000
0100
0000
0010
0000
0001
0100
,  // measure 69
1000
0000
0010
0000
0001
0000
0100
0000
0001
0000
0100
0000
0010
0000
0001
0100
,  // measure 70
1000
0000
0100
0000
0010
0000
0001
0000
1000
0000
0001
0000
0100
0000
0010
0100
,  // measure 71
1000
0010
0001
0100
0001
0110
1010
0000
,  // measure 72
0100
0000
0010
0000
0001
0000
1000
0000
0001
0000
0100
0000
1000
0000
0001
0100
,  // measure 73
1000
0000
0000
0000
0100
0000
0000
0000
0010
0000
0100
0000
0001
1000
0000
0100
,  // measure 74
0001
0000
0100
0000
0010
0000
1000
0000
0001
0000
0100
0000
1000
0000
0100
0001
,  // measure 75
0010
0000
0010
0000
0001
0000
1000
0000
0001
0000
0100
0000
0010
0000
0001
1000
,  // measure 76
0100
0000
0000
0001
0000
0000
0100
0000
0000
0010
0000
0000
0010
0000
0000
0100
,  // measure 77
0001
0000
0000
0001
0000
0000
0100
0000
0000
0010
0000
0000
1000
0000
0000
0100
,  // measure 78
0001
0000
0000
0010
0000
0000
0100
0000
0000
0010
0000
0000
0100
0000
0000
1000
,  // measure 79
0100
0000
0000
0100
0000
0000
0010
0000
0000
0001
0000
0000
1000
0000
0000
0100
,  // measure 80
0001
0000
0000
0000
;
