#TITLE:kissing my friends;
#SUBTITLE:;
#ARTIST:Marshmello & INJI;
#TITLETRANSLIT:;
#SUBTITLETRANSLIT:;
#ARTISTTRANSLIT:;
#GENRE:;
#CREDIT:;
#BANNER:;
#BACKGROUND:;
#LYRICSPATH:;
#CDTITLE:;
#MUSIC:Marshmello, INJI - Kissin My Friends (Official Audio).ogg;
#OFFSET:0.000000;
#SAMPLESTART:100.059883;
#SAMPLELENGTH:12.000000;
#SELECTABLE:YES;
#BPMS:0.000000=160.000000
;
#STOPS:
;
#BGCHANGES:;
#KEYSOUNDS:;
#ATTACKS:;

//---------------dance-single - ----------------
#NOTES:
     dance-single:
     :
     Hard:
     10:
     0.394173,0.508390,0.108630,0.449005,0.043452,381.000000,366.000000,15.000000,62.000000,0.000000,0.000000,0.394173,0.508390,0.108630,0.449005,0.043452,381.000000,366.000000,15.000000,62.000000,0.000000,0.000000:
// measure 0
0000
0000
0000
0000
,  // measure 1
0000
0000
0000
0000
,  // measure 2
0000
0000
0000
0000
,  // measure 3
0000
0000
0000
0000
,  // measure 4
0000
0000
0000
0000
,  // measure 5
0000
0000
0000
0000
,  // measure 6
0000
0000
0000
0000
,  // measure 7
0010
0000
0000
0000
0001
0000
0000
0000
0100
0010
0001
0000
0100
0000
0000
0000
,  // measure 8
1000
0001
0100
0010
0001
1000
0001
0100
,  // measure 9
1000
0000
0000
0000
0000
0000
0000
0000
0000
0000
0000
0000
0000
0000
1000
0100
,  // measure 10
0001
0010
0100
0001
0100
0001
1000
0001
,  // measure 11
0100
0000
0000
0100
0000
0000
0100
0000
0000
0100
0000
0000
0100
0000
0000
0000
,  // measure 12
0100
0010
0001
0100
0001
0100
0001
0100
,  // measure 13
1000
0000
0000
0000
0000
0000
0000
0001
,  // measure 14
0100
0010
0001
0100
0001
0100
1000
0001
,  // measure 15
0100
0000
0000
0100
0000
0000
0100
0000
0000
0100
0000
0000
0100
0000
0000
0000
,  // measure 16
0220
0000
0000
0000
0000
0000
0330
0010
,  // measure 17
0001
1000
0001
0100
1000
0000
0000
0000
,  // measure 18
0001
0100
0010
0001
0100
0001
0100
1000
,  // measure 19
0001
0000
0100
0000
0000
0000
0110
0100
,  // measure 20
2002
0000
0000
0000
0000
0000
3003
0010
,  // measure 21
0100
0001
0001
0100
1000
0000
0000
0010
,  // measure 22
0100
0001
1000
0001
0100
0001
1000
0000
,  // measure 23
0110
0110
0110
0110
,  // measure 24
0200
0000
0300
0000
0002
0000
0003
0010
,  // measure 25
0000
0010
0001
0000
0200
0000
0300
0010
,  // measure 26
0000
0001
0100
0000
0020
0000
0030
0100
,  // measure 27
0000
0010
0001
0000
2000
0000
3100
0000
,  // measure 28
0002
0000
0003
0000
0020
0000
0030
0100
,  // measure 29
0000
1000
0100
0000
0020
0000
0030
0100
,  // measure 30
0000
1000
0100
0000
0010
0000
0000
0100
,  // measure 31
0001
0000
0010
0100
0000
0001
1000
0000
,  // measure 32
0200
0000
0300
0000
0002
0000
0003
0010
,  // measure 33
0000
0100
0001
0000
2000
0000
3000
0100
,  // measure 34
0000
0001
0010
0000
0020
0000
0030
0001
,  // measure 35
0000
0010
1000
0000
0200
0000
0301
0000
,  // measure 36
2000
0000
3000
0000
0200
0000
0300
0001
,  // measure 37
0000
0010
0100
0000
0002
0000
0003
0010
,  // measure 38
0000
0100
0001
0000
2000
0000
3000
0100
,  // measure 39
0010
0000
0100
0001
0000
1000
0100
0000
,  // measure 40
0100
0010
0001
0100
0001
1000
0100
0001
,  // measure 41
1000
0000
0000
0000
0000
0000
0000
0000
0000
0000
0000
0000
0000
0000
0100
0001
,  // measure 42
0100
0001
0100
0010
0001
1000
0001
0100
,  // measure 43
0100
0000
0000
0100
0000
0000
0100
0000
0000
0010
0000
0000
0100
0000
0000
0000
,  // measure 44
0100
0010
0001
0100
0001
0100
0001
1000
,  // measure 45
0001
0000
0000
0000
0000
0000
0000
0000
0000
0000
0000
0000
0000
0000
1000
0100
,  // measure 46
0001
0010
0100
0010
0001
1000
0001
0100
,  // measure 47
1000
0000
0000
0010
0000
0000
0100
0000
0000
0001
0000
0000
0010
0000
0000
0000
,  // measure 48
2002
0000
0000
0000
0000
0000
3003
0010
,  // measure 49
0100
0010
0001
1000
0100
0000
0000
0000
,  // measure 50
0001
0100
0010
0001
1000
0001
0100
0001
,  // measure 51
1000
0000
0100
0000
0000
0000
1001
1000
,  // measure 52
2002
0000
0000
0000
0000
0000
3003
0001
,  // measure 53
0100
0010
1000
0001
0100
0000
0000
0000
,  // measure 54
0100
0010
0001
1000
0001
0100
0010
0000
,  // measure 55
1001
0110
0101
0110
,  // measure 56
2000
0000
3000
0000
0200
0000
0300
0001
,  // measure 57
0000
0010
0100
0000
0002
0000
0003
0010
,  // measure 58
0000
0100
0001
0000
2000
0000
3000
0100
,  // measure 59
0000
0001
0010
0000
0200
0000
0301
0000
,  // measure 60
0020
0000
0030
0000
2000
0000
3000
0001
,  // measure 61
0000
0100
0001
0000
2000
0000
3000
0100
,  // measure 62
0000
0001
0010
0000
0200
0000
0300
0001
,  // measure 63
0100
0000
0010
0001
0000
1000
0100
0000
,  // measure 64
2002
0000
3003
0000
0020
0000
0030
0001
,  // measure 65
0000
0010
0100
0000
0002
0000
0003
0010
,  // measure 66
0000
0100
0001
0000
0020
0000
0030
0100
,  // measure 67
0000
0001
0010
0000
0020
0000
0130
0000
,  // measure 68
0002
0000
0003
0000
0020
0000
0030
0100
,  // measure 69
0000
0001
1000
0000
0200
0000
0300
0010
,  // measure 70
0000
0001
0100
0000
0002
0000
0003
0010
,  // measure 71
0100
0000
0001
1000
0000
0100
0001
0000
,  // measure 72
2000
0000
3000
0000
0200
0000
0300
0001
,  // measure 73
0000
0010
0100
0000
0020
0000
0030
0001
,  // measure 74
0000
1000
0100
0000
0002
0000
0003
0010
,  // measure 75
0000
0100
0001
0000
0020
0000
0130
0000
,  // measure 76
2000
0000
3000
0000
0200
0000
0300
0001
,  // measure 77
0000
0010
0100
0000
0002
0000
0003
0010
,  // measure 78
0000
0100
0001
0000
0020
0000
0030
0100
,  // measure 79
0100
0010
0001
1000
0001
0100
1000
0000
,  // measure 80
0200
0000
0300
0000
2000
0000
3000
0001
,  // measure 81
0000
0010
0100
0000
0002
0000
0003
0010
,  // measure 82
0000
0100
0001
0000
0020
0000
0030
0100
,  // measure 83
0000
0001
1000
0000
0200
0000
0301
0000
,  // measure 84
0020
0000
0030
0000
0200
0000
0300
0010
,  // measure 85
0000
0100
0001
0000
2000
0000
3000
0100
,  // measure 86
0000
0001
0010
0000
0200
0000
0300
0001
,  // measure 87
1000
0100
0001
0100
0001
1000
0001
0000
;
