#VERSION:0.83;
#TITLE:just got paid;
#SUBTITLE:;
#ARTIST:Johnny Kemp;
#TITLETRANSLIT:;
#SUBTITLETRANSLIT:;
#ARTISTTRANSLIT:;
#GENRE:;
#ORIGIN:;
#CREDIT:;
#BANNER:;
#BACKGROUND:;
#PREVIEWVID:;
#JACKET:;
#CDIMAGE:;
#DISCIMAGE:;
#LYRICSPATH:;
#CDTITLE:;
#MUSIC:Just Got Paid.ogg;
#OFFSET:0.000000;
#SAMPLESTART:100.059883;
#SAMPLELENGTH:12.000000;
#SELECTABLE:YES;
#BPMS:0.000=115.000;
#STOPS:;
#DELAYS:;
#WARPS:;
#TIMESIGNATURES:0.000=4=4;
#TICKCOUNTS:0.000=4;
#COMBOS:0.000=1;
#SPEEDS:0.000=1.000=0.000=0;
#SCROLLS:0.000=1.000;
#FAKES:;
#LABELS:0.000=Song Start;
#BGCHANGES:;
#KEYSOUNDS:;
#ATTACKS:
;

//---------------dance-single - ----------------
#NOTEDATA:;
#CHARTNAME:;
#STEPSTYPE:dance-single;
#DESCRIPTION:;
#CHARTSTYLE:;
#DIFFICULTY:Hard;
#METER:12;
#RADARVALUES:0.412874,0.762394,0.283878,0.000000,0.394107,957.000000,863.000000,94.000000,0.000000,0.000000,0.000000,0.000000,0.000000,0.000000,0.412874,0.762394,0.283878,0.000000,0.394107,957.000000,863.000000,94.000000,0.000000,0.000000,0.000000,0.000000,0.000000,0.000000;
#CREDIT:;
#NOTES:
// measure 0
0000
0000
0000
0000
,  // measure 1
0000
0000
0000
0000
,  // measure 2
0000
0000
0000
0000
,  // measure 3
1001
0000
0100
0010
0001
0000
0010
0000
,  // measure 4
0100
0001
0100
0010
,  // measure 5
1001
0000
0000
0000
0010
0000
0000
0000
0100
0010
0100
0001
1000
0001
0010
0000
,  // measure 6
0001
0000
0000
0000
0100
0000
0000
0000
0010
0000
0000
0000
1000
0000
0100
0001
,  // measure 7
0010
0100
0100
0010
,  // measure 8
0010
0000
0000
0000
0000
0000
0000
0000
0000
0000
0010
0100
0001
1000
0001
0010
,  // measure 9
0100
0010
0100
0001
,  // measure 10
0110
0100
0001
1000
,  // measure 11
1000
0000
0100
0100
1000
0000
0010
0000
,  // measure 12
1000
0000
0000
0000
0001
0000
0000
0000
0100
0000
0000
0010
0000
0000
0110
0000
,  // measure 13
0110
0001
0100
0010
,  // measure 14
0001
0000
0100
0000
0010
0001
0100
0001
,  // measure 15
0100
0001
0100
0010
,  // measure 16
0100
0001
0000
0000
0100
0001
0000
0000
0100
0000
0010
0100
0000
0000
0101
0000
,  // measure 17
0101
0000
0000
0000
0000
0000
0000
0100
0000
0000
0001
0000
0010
0000
0000
0000
,  // measure 18
0000
0000
0000
0000
0000
0000
0001
0100
0000
0000
0010
0000
0100
0000
0000
0000
,  // measure 19
0000
0000
0000
0000
0000
0000
0000
0010
0000
0000
0001
0000
0100
0000
0010
0000
,  // measure 20
0000
0000
0000
0000
0000
0000
0000
0100
0000
0000
0001
0000
0010
0000
0000
0000
,  // measure 21
0000
0000
0000
0000
0000
0000
0000
0100
0000
0000
0010
0000
0001
0000
0100
0000
,  // measure 22
0000
0000
0000
0000
0100
0001
0000
0010
0000
0000
0100
0000
0010
0000
0001
0010
,  // measure 23
0000
0000
0000
0000
0000
0000
0000
0100
0000
0000
0001
0000
0010
0000
0000
0000
,  // measure 24
0000
0000
0000
0100
0001
0010
0100
0001
0010
0001
0100
0000
0101
0000
0101
0000
,  // measure 25
0101
0000
0000
0000
0000
0000
0000
0100
0000
0000
0001
0000
0010
0000
0000
0000
,  // measure 26
0000
0000
0000
0000
0000
0000
0100
0001
0000
0000
0010
0000
0100
0010
0000
0000
,  // measure 27
0000
0000
0000
0000
0000
0000
0000
0100
0001
0000
0010
0000
0100
0000
0000
0010
,  // measure 28
0000
0000
0000
0000
0000
1000
0000
0100
0000
0000
0010
0000
0001
0000
0000
0000
,  // measure 29
0000
0000
0000
0000
0000
0000
0000
0100
0000
0000
0010
0000
0001
0000
0000
0100
,  // measure 30
0000
0000
0000
0000
0000
0000
0100
0001
0000
0000
0010
0000
0100
0000
0000
0000
,  // measure 31
0000
0000
0000
0000
0000
0000
0000
0100
0000
0000
0001
0000
0010
0000
0100
0000
,  // measure 32
0000
0000
0000
0000
0001
0000
0000
0000
0100
0000
0000
0000
0010
0000
0000
0100
,  // measure 33
0001
0000
0000
0000
0000
0000
0000
0000
0000
0000
0000
0000
0000
0000
0000
1000
,  // measure 34
0100
0000
0000
0010
0000
0000
0100
0000
0010
0000
0000
0000
0000
0000
0000
0000
,  // measure 35
0110
0000
0001
0000
0000
0100
0000
0000
0010
0000
0000
0001
0000
0000
0100
0000
,  // measure 36
0011
0101
0110
0101
,  // measure 37
1001
0000
0000
0000
0000
0000
0000
0100
,  // measure 38
0001
0000
0000
0010
0000
0000
0000
0000
0000
0000
0000
0000
0100
0000
0000
0000
,  // measure 39
0110
0000
0000
0000
,  // measure 40
0110
0000
0000
0000
0101
0000
0000
0000
0110
0000
0000
0000
0100
0001
0010
0000
,  // measure 41
0110
0000
0000
0000
0000
0000
0000
0100
0000
0000
0001
0000
0010
0000
0000
0100
,  // measure 42
0000
0000
0001
0000
0010
0000
0000
0010
0000
0000
0001
0000
0100
0000
0001
0000
,  // measure 43
0010
0000
0000
0000
0000
0000
0000
0100
0000
0000
0001
0000
0010
0000
0100
0000
,  // measure 44
0010
0100
0000
0001
0000
1000
0000
0010
0000
0000
0100
0000
0001
0000
0000
0000
,  // measure 45
1001
0000
0010
0000
0100
0000
0001
1000
0000
0000
0100
0000
0010
0000
0100
0000
,  // measure 46
0000
0000
0100
0000
0000
0000
0000
0010
0000
0000
0100
0000
1000
0000
0000
0100
,  // measure 47
0000
0001
0010
0000
0000
0000
0100
0001
0000
0000
0010
0000
0100
0000
0000
0000
,  // measure 48
0110
0000
0000
0000
0001
0000
0100
0010
0000
0000
0001
0000
0010
0100
0001
0000
,  // measure 49
1001
0000
0000
0000
0000
0000
0000
0100
0000
0000
0010
0000
0001
0000
0000
0000
,  // measure 50
0000
0000
0000
0000
0000
0000
0000
0000
0100
0001
1000
0001
0010
0000
0000
0000
,  // measure 51
0000
0000
0000
0000
1000
0000
0000
0001
,  // measure 52
0000
0000
0000
0000
0000
0000
0010
0100
0000
0000
0100
0000
1000
0000
0000
0000
,  // measure 53
0000
0000
0000
0000
0000
0000
0000
0100
0000
0000
0010
0000
0100
0000
0000
0000
,  // measure 54
0000
0000
0000
0000
0000
0000
0000
0100
0000
0000
0001
0000
0010
0000
0000
0000
,  // measure 55
0000
0000
0000
0000
0000
0000
0000
0001
0000
0000
0100
0000
0001
0000
0010
0000
,  // measure 56
0000
0000
0000
1000
0100
0000
0010
0000
,  // measure 57
0101
0000
0000
0000
0000
0000
0000
0000
0000
0000
1000
1000
0000
0000
0000
0000
,  // measure 58
0000
0000
0000
0000
0000
0000
0000
0110
,  // measure 59
0110
0000
0000
0010
0000
0000
0100
0000
0010
0000
0000
0000
0001
0000
0100
0000
,  // measure 60
0100
0010
0100
0001
,  // measure 61
0110
0000
0000
0000
,  // measure 62
0000
0000
0000
0000
0000
0000
0000
0101
,  // measure 63
0101
0000
0000
0000
,  // measure 64
0110
0000
0101
0000
0110
0000
0101
0101
,  // measure 65
0101
0000
0000
0000
0000
0000
0000
0100
0000
0000
0001
0000
0010
0000
0000
0100
,  // measure 66
0000
0001
0000
0010
0000
0000
0100
0010
0000
0000
0100
0000
1000
0000
0000
0010
,  // measure 67
0100
0001
0010
0100
0001
0010
0100
0001
0010
0000
0100
0000
0010
0000
0100
0000
,  // measure 68
1001
0000
0000
0000
0000
0000
0000
0001
0000
0000
0100
0000
1000
0000
0101
0000
,  // measure 69
0101
0000
0100
0000
0010
0000
0000
0100
0000
0000
0010
0000
0001
0000
0100
0010
,  // measure 70
0000
0100
0000
0001
0000
1000
0001
0100
0000
0000
0010
0000
0100
0000
0000
0010
,  // measure 71
0000
0001
0000
0100
0000
0010
0001
0100
0000
0001
0010
0000
0100
0000
0000
0000
,  // measure 72
0000
0000
0000
0000
0100
0001
0000
0010
0100
0001
1000
0000
0110
0000
0011
0000
,  // measure 73
0110
0000
0101
0000
0000
0000
0000
0101
,  // measure 74
0000
0000
0000
0000
0000
0000
0000
0000
0010
0100
0000
0001
0000
0000
0101
0000
,  // measure 75
0101
0000
0000
0000
0000
0000
0000
0000
0100
0001
1000
0001
0010
0000
0100
0000
,  // measure 76
0101
0000
0000
0000
0000
0000
0000
0101
,  // measure 77
0101
0000
0000
0000
,  // measure 78
1000
0000
1000
0000
0000
0000
0000
0101
,  // measure 79
0101
0000
0000
0000
0000
0000
0000
0000
0000
0000
1000
1000
0000
0000
0000
0000
,  // measure 80
0101
0000
0000
0101
,  // measure 81
1001
0000
0000
0000
0010
0100
0001
0000
,  // measure 82
0100
0000
0010
0001
0000
0000
0000
0010
0000
0000
0010
0100
0001
0000
0000
0000
,  // measure 83
0010
0000
0001
0000
0100
0000
0000
0010
0000
0000
0001
0000
0100
0000
0000
0000
,  // measure 84
0010
0000
0000
0000
0001
0000
0000
0100
0000
0000
0010
0000
0001
0000
0000
0000
,  // measure 85
1001
0000
0000
0000
0000
0000
0000
0100
0000
0000
0010
0000
0100
0000
0001
0000
,  // measure 86
0000
0100
0010
0001
0000
0010
0000
0001
0100
0010
0100
0001
0010
0001
0000
0001
,  // measure 87
0100
0000
0000
0000
0000
0000
0000
0010
0000
0000
0100
0000
0001
0000
0010
0000
,  // measure 88
0100
0000
0000
0000
0010
0100
0000
0001
0000
0000
1000
0000
0100
0000
0010
0100
,  // measure 89
0000
0000
0010
0000
0001
0000
0000
1000
0000
0000
0001
0000
0100
0000
0000
0000
,  // measure 90
0100
0010
0000
0001
0000
0000
1000
0100
0000
0000
0010
0000
0001
0000
0000
0000
,  // measure 91
0000
0000
0000
0000
0000
0000
1000
0100
0001
0000
0010
0000
0100
0000
0001
0000
,  // measure 92
0000
0000
0000
0000
0000
0000
0000
0010
0000
0000
0001
0000
0100
0000
0000
0000
,  // measure 93
0001
0010
0001
0100
0001
1000
0000
0100
0000
0000
0010
0000
0001
0000
0100
0000
,  // measure 94
0000
0000
0000
0000
0000
0000
0000
0001
0000
0000
0100
0000
1000
0000
0100
0001
,  // measure 95
0010
0100
0001
0000
0100
0000
0000
0010
0000
0000
0001
0000
0100
0000
0000
0000
,  // measure 96
0000
0000
0000
0000
0100
0000
0000
0001
0000
0000
0100
0000
0010
0000
0101
0000
,  // measure 97
0101
0001
0000
0000
0000
0000
0000
1000
,  // measure 98
0000
0000
0000
0000
0100
0001
0010
0110
,  // measure 99
0110
0000
0000
0000
,  // measure 100
1001
0000
1001
0000
0000
0000
0000
1001
,  // measure 101
1001
0000
0000
1001
0000
0000
0000
0000
0000
0000
0000
0000
0000
0000
0000
0000
,  // measure 102
1001
1001
1001
0000
0000
0000
0000
0101
,  // measure 103
0101
0000
0000
0000
,  // measure 104
0101
0101
1001
1001
,  // measure 105
0101
0010
0001
0100
,  // measure 106
0000
0010
0100
0000
0000
0010
0001
0000
,  // measure 107
1001
0000
0010
0000
0100
0000
0001
0000
1000
0100
0000
0001
0000
0000
0010
0000
,  // measure 108
0110
0000
0000
0000
1000
0001
0100
0001
,  // measure 109
0101
0000
0100
0000
0001
0000
1000
0000
0001
0010
0000
0100
0001
0000
0000
0000
,  // measure 110
0110
0000
0000
0000
0100
0001
1000
0001
0010
0000
0100
0000
0010
0000
0001
0010
,  // measure 111
0100
0000
0100
0000
0010
0000
1000
0001
0100
0000
0001
0000
0100
0000
0010
0000
,  // measure 112
0101
0000
0010
0100
0000
0000
0001
0000
1000
0100
0010
0001
0000
0000
0010
0000
,  // measure 113
0110
0000
0000
0000
1000
0100
0001
0100
0001
0100
0001
0000
0010
0000
0010
0000
,  // measure 114
0100
0000
0010
0000
0100
0001
0000
1000
0000
0100
0000
0001
0010
0000
0001
0010
,  // measure 115
0100
0000
0001
0000
0100
0000
0000
0000
0010
0100
0000
0001
0000
0000
0010
0000
,  // measure 116
0100
0000
0100
0000
0010
0000
0000
0000
0100
0001
0000
0010
0000
0100
0001
1000
,  // measure 117
0001
0010
0100
0010
0001
1000
0001
0100
0000
0000
0001
0000
0010
0000
0001
0000
,  // measure 118
1000
0100
0010
0100
0000
0000
0001
0100
0010
0000
0100
0001
1000
0000
0001
0100
,  // measure 119
0010
0100
0001
1000
0100
0001
0100
0001
0100
0010
0001
0100
0010
0001
0100
0001
,  // measure 120
0100
0010
0001
0100
0001
0100
0010
0001
1000
0001
0100
0010
0001
0100
0001
0100
,  // measure 121
1000
0010
0100
0001
1000
0100
0010
0000
0100
0001
0010
0100
0001
1000
0001
0010
,  // measure 122
0100
0001
1000
0001
0010
0000
0100
0000
0011
0000
0100
0000
0011
0000
1000
0000
,  // measure 123
0100
0010
0001
0100
0010
0001
0100
0000
0010
0001
0100
0000
0010
0001
0100
0000
,  // measure 124
0010
0000
0000
0000
0100
0000
0000
0000
0010
0000
0000
0000
0100
0000
0000
0010
,  // measure 125
0100
0000
0000
0000
0000
0000
0000
0001
0000
0000
0010
0000
0100
0000
0000
0000
,  // measure 126
0100
0010
0000
0100
0000
0000
0100
0010
0000
0000
0001
0000
0100
0000
0000
0000
,  // measure 127
0010
0000
0000
0100
0000
0000
0000
0010
0000
0000
0100
0000
0001
0000
0010
0000
,  // measure 128
0100
0001
0000
0010
0000
0100
0010
0001
0000
0000
0001
0000
0100
0000
0000
0000
,  // measure 129
0100
0001
1000
0100
0001
0100
0001
0010
0000
0000
0001
0000
0100
0000
0010
0000
,  // measure 130
0010
0001
0100
0010
0001
1000
0001
0100
0010
0000
0101
0000
0001
0000
0000
0000
,  // measure 131
0000
0000
0000
0000
0000
0000
0000
0010
0000
0000
0001
0000
0100
0000
0000
0000
,  // measure 132
0000
0000
0000
0001
0100
0010
0000
0010
0000
0000
0100
0000
0001
0000
0101
0000
,  // measure 133
0101
0000
1000
0000
0000
0000
0000
0100
0000
0000
0010
0000
0001
0000
0000
0000
,  // measure 134
0010
0000
0000
0000
0001
0000
0000
0001
0100
0000
0010
0000
0100
0000
0000
0000
,  // measure 135
0100
0000
0010
0000
0000
0000
0000
0100
0000
0000
0100
0000
0001
0000
0001
0000
,  // measure 136
0100
0000
0010
0000
0001
0000
0010
0100
0000
0010
0100
0001
0010
0000
0101
0000
,  // measure 137
0100
0010
0100
0001
0000
1000
0000
0100
0010
0000
0100
0000
0001
0000
1000
0000
,  // measure 138
0100
0010
0100
0001
0000
0100
0000
0010
0100
0010
0100
0001
0010
0000
0100
0000
,  // measure 139
0110
0000
0000
0000
0000
0000
0000
0100
0010
0000
0001
0000
0100
0000
0000
0000
,  // measure 140
1001
0000
0000
0000
0100
0001
0000
0010
0000
0000
0100
0000
0001
0010
0100
0001
,  // measure 141
0010
0000
0000
0000
0100
0001
0000
1000
0000
0000
0100
0000
0010
0000
0001
0000
,  // measure 142
1001
0000
0000
0000
0000
0000
0100
0001
0000
0000
0010
0000
0100
0001
0010
0100
,  // measure 143
0001
0000
0000
0000
0000
0000
0000
0100
0000
0000
0010
0000
0001
0000
1000
0000
,  // measure 144
0000
0000
0100
0000
0000
0000
0000
0010
0000
0000
0001
0000
1000
0000
0000
0001
,  // measure 145
0100
0010
0000
0000
0000
0000
0000
0010
0000
0000
0100
0000
0001
0000
0100
0000
,  // measure 146
0000
0000
0000
0000
0010
0000
0000
0100
0001
0000
0010
0000
0100
0001
1000
0100
,  // measure 147
0000
0010
0000
0100
0000
0010
0000
0001
0000
0100
1000
0000
0010
0000
0000
0000
,  // measure 148
0000
0000
0000
0000
0010
0100
0000
0001
0000
0000
0010
0000
0001
0000
0010
0100
,  // measure 149
0001
0000
0000
0000
0000
0000
0000
1001
,  // measure 150
0000
0000
0000
0000
0000
0100
1000
0000
0010
0000
0001
0000
0100
0000
0000
0000
,  // measure 151
0010
0000
0000
0000
0000
0000
0000
1001
,  // measure 152
1001
0000
0000
0000
0010
0001
0100
0101
,  // measure 153
0101
0000
0000
0000
;
