#TITLE:just dance 2;
#SUBTITLE:;
#ARTIST:PARTYOF2, Jadagrace, & SWIM;
#TITLETRANSLIT:;
#SUBTITLETRANSLIT:;
#ARTISTTRANSLIT:;
#GENRE:;
#CREDIT:;
#BANNER:;
#BACKGROUND:;
#LYRICSPATH:;
#CDTITLE:;
#MUSIC:PARTYOF2 - JUST DANCE 2.ogg;
#OFFSET:0.000000;
#SAMPLESTART:100.059883;
#SAMPLELENGTH:12.000000;
#SELECTABLE:YES;
#BPMS:0.000000=128.000000
;
#STOPS:0.000000=0.600000
;
#BGCHANGES:0.000=PARTYOF2 - JUST DANCE 2.mp4=1.000=0=0=1=====,
99999=-nosongbg-=1.000=0=0=0 // don't automatically add -songbackground-
;
#KEYSOUNDS:;
#ATTACKS:;

//---------------dance-single - ----------------
#NOTES:
     dance-single:
     :
     Hard:
     14:
     0.595255,0.739192,0.213166,0.004022,0.259419,1036.000000,983.000000,53.000000,1.000000,0.000000,0.000000,0.595255,0.739192,0.213166,0.004022,0.259419,1036.000000,983.000000,53.000000,1.000000,0.000000,0.000000:
// measure 0
0000
0000
0000
0000
,  // measure 1
0000
0000
0000
0000
,  // measure 2
0000
0000
0000
0000
,  // measure 3
0000
0000
0000
0000
0000
0000
0000
1000
,  // measure 4
1001
0100
0010
0001
0100
0000
0001
0100
,  // measure 5
1000
0001
0000
1001
0000
0000
0110
0000
,  // measure 6
0011
0100
0010
0001
1000
0001
0100
0001
,  // measure 7
1000
0100
0000
0010
0100
0001
0000
1000
,  // measure 8
0101
0010
0100
0001
0100
0010
1001
0000
,  // measure 9
0100
0001
0000
1000
0000
0000
0010
0000
0100
0000
0001
1000
0100
0000
0000
0000
,  // measure 10
1001
0000
0001
0000
0000
0000
0001
0100
1000
0000
0001
0000
0010
0000
0001
0000
,  // measure 11
0010
0100
0000
0001
0000
0010
0100
0000
1001
0000
0100
0000
0101
0000
0000
0000
,  // measure 12
1001
0000
0100
0001
0100
0001
1000
0100
,  // measure 13
0001
0100
0001
0100
0001
1000
0100
0100
,  // measure 14
0000
0000
0000
0000
1000
0000
0100
0001
0010
0000
0001
0000
0100
0000
0001
0000
,  // measure 15
0100
0010
0001
1000
0001
0100
1000
0000
,  // measure 16
1001
0000
0000
0000
0100
0001
1000
0000
0001
0000
1000
0000
0100
0000
0000
0000
,  // measure 17
0100
0010
0001
1000
0001
0100
1000
0100
,  // measure 18
0000
0000
0000
0000
0001
0100
1000
0010
0001
0000
0100
0000
0100
0000
0000
0001
,  // measure 19
0010
0100
0001
0000
1000
0100
0001
0100
0001
0000
0000
0000
1100
0000
0000
0000
,  // measure 20
0101
0100
0001
1000
0001
0010
0100
0010
,  // measure 21
1001
0000
0010
0001
1000
0001
0100
0010
,  // measure 22
1001
0000
0010
0001
1000
0001
0100
0010
,  // measure 23
1001
0001
1000
0001
0100
0010
1001
0000
,  // measure 24
0110
0000
0010
0001
1000
0001
0100
0010
,  // measure 25
1001
0000
0010
0001
1000
0001
0100
0010
,  // measure 26
1001
0000
0010
0001
1000
0001
0100
1000
,  // measure 27
0000
0010
1000
0001
0100
0010
1001
0000
,  // measure 28
0100
0000
0001
0000
1000
0000
0001
0000
0010
0000
0100
0000
0000
0000
1000
0100
,  // measure 29
0001
0000
0010
0100
0001
0000
0010
0100
0001
0000
0100
0000
1000
0000
0000
0000
,  // measure 30
0010
0001
0100
0000
0010
0000
0001
1000
0100
0000
0100
0000
0010
0000
0100
0000
,  // measure 31
0010
0000
0001
1000
0100
0000
0010
0000
0001
0000
0100
0000
1000
0000
0010
0100
,  // measure 32
0001
0010
0100
0010
0001
1000
0001
0100
,  // measure 33
0010
0000
0001
0100
1000
0000
0001
0000
1000
0000
0001
0000
0100
0000
0010
0000
,  // measure 34
1000
0001
0100
0010
0001
1000
0001
0100
,  // measure 35
0010
0001
1000
0001
0100
0010
0100
0001
,  // measure 36
1001
0000
0000
0100
0001
1000
0001
0000
0010
0000
0001
0000
0100
0000
1000
0000
,  // measure 37
0000
0000
0100
0001
1000
0000
0100
0000
0010
0000
0001
0000
1000
0000
0100
0000
,  // measure 38
1001
0000
0000
0010
0100
0001
1000
0000
0010
0000
0001
0000
0100
0000
1000
0000
,  // measure 39
0000
1000
0001
0100
0010
1100
0011
0000
,  // measure 40
0110
0000
0000
0001
1000
0000
0101
0000
1000
0000
0100
0001
0010
0000
0100
0000
,  // measure 41
0001
0000
0000
0000
1000
0000
0100
0001
0010
0000
0010
0000
0001
1000
0100
0000
,  // measure 42
0110
0000
0000
0000
0000
0000
0100
0001
0010
0000
0100
0000
0001
0000
0100
0000
,  // measure 43
1000
0000
0000
0001
0010
0000
0100
0000
0100
0000
0010
0000
0001
0100
1000
0000
,  // measure 44
0010
0000
0100
0001
0000
1000
0100
0001
0010
0000
0001
0010
0000
0000
0000
0000
,  // measure 45
1000
0100
0001
0100
0001
0000
0000
0100
0001
1000
0001
0000
0010
0000
0000
0000
,  // measure 46
1000
0000
0000
0000
0100
0000
0000
0000
0001
0000
0000
0000
1000
0000
0000
0000
0001
0000
0000
0000
0010
0000
0000
0000
1000
0000
0000
0100
0000
0000
0000
0000
0000
0001
0000
0000
0010
0000
0000
0000
0000
0000
0000
0000
0000
0000
0000
0000
,  // measure 47
0010
0100
0001
1000
0001
1000
0100
0001
0100
0001
0000
0010
,  // measure 48
0001
1000
0001
0100
0010
0001
1000
0001
0100
1000
0000
0010
,  // measure 49
0001
0100
0010
0001
1000
0001
0100
0001
1000
0100
0000
0010
,  // measure 50
0001
0100
0001
0100
0010
0001
1000
0001
0100
1000
0000
0100
,  // measure 51
0010
0000
0001
0000
1000
0000
0001
0000
0100
0000
0010
0000
1000
0000
0000
0001
0000
0000
0100
0000
0000
0010
0000
0000
,  // measure 52
0010
0000
0001
0000
0000
0000
1000
0000
0100
0000
0001
0000
1000
0100
0001
0000
,  // measure 53
0010
0100
0001
0100
1000
0000
0001
0100
,  // measure 54
1100
0100
0001
0100
1000
0000
0101
0100
,  // measure 55
1000
0100
0001
0100
1000
0000
0011
0100
,  // measure 56
1000
0010
0000
0100
0001
0010
0100
0001
,  // measure 57
0001
1000
0001
0100
1000
0000
0100
0010
,  // measure 58
1001
0000
0001
0100
1000
0000
0001
0100
,  // measure 59
0101
0000
0001
0100
1000
0000
0001
0100
,  // measure 60
0100
0010
0001
1000
0001
0100
0010
0001
,  // measure 61
0100
0001
0100
0010
0001
1000
0001
0100
,  // measure 62
0010
0001
1000
0001
0100
0010
0001
1000
,  // measure 63
0001
0100
0010
0001
1000
0001
0100
0010
,  // measure 64
1001
0100
0010
0001
1000
0001
0100
0010
,  // measure 65
0110
0100
0001
0100
1000
0001
0001
0100
,  // measure 66
0110
0001
0100
0010
0001
1000
0001
0100
,  // measure 67
0110
0101
0110
1001
,  // measure 68
0100
0000
0001
0010
0100
0000
0001
0100
1000
0000
0010
0000
0100
0001
0000
0000
,  // measure 69
0000
0000
0100
0000
0001
0000
0010
0100
0001
0000
0010
0000
0001
0100
0000
0000
,  // measure 70
1000
0000
0100
0001
0010
0000
0100
0001
1000
0000
0100
0000
0001
0000
0000
0000
,  // measure 71
0000
0000
0100
0001
0010
0000
1000
0100
0001
0010
0001
0100
1000
0100
0000
0000
,  // measure 72
0100
0000
0010
0000
0100
0001
0010
0000
0001
0000
0010
0000
1000
0000
0100
0000
,  // measure 73
0010
0000
0100
0001
0100
0000
0001
0000
0100
0000
0001
0000
1000
0100
0000
0000
,  // measure 74
0010
0100
0000
0001
0000
0000
0001
0000
0100
0000
0010
0000
1000
0100
0000
0001
,  // measure 75
0000
0000
0001
0000
0100
0000
0010
0000
1000
0100
0000
0001
0000
0000
1001
0000
,  // measure 76
0100
0000
0001
0000
1000
0000
0001
0010
0000
0000
0100
0000
0000
0010
0001
0000
,  // measure 77
0010
0000
0001
0010
0100
0000
1000
0000
0010
0000
0000
0000
0001
0000
0000
0000
,  // measure 78
0000
0000
0100
0000
1000
0000
0000
0010
0001
0000
1000
0000
0000
0100
0010
0000
,  // measure 79
0001
0100
0010
0100
0001
0100
1000
0000
,  // measure 80
0000
0000
0100
0000
0001
0000
0010
0100
0000
0000
0010
0000
0000
0100
0001
0000
,  // measure 81
0001
1000
0001
0100
1000
0000
0100
0000
,  // measure 82
0100
0000
0001
0000
0100
0000
0010
0100
0000
0000
0001
0000
0000
0010
0100
0000
,  // measure 83
0001
0100
1000
0000
0200
0000
0310
0000
,  // measure 84
0100
0010
0001
0100
0001
0100
1000
0010
,  // measure 85
0001
1000
0001
0100
0010
0001
1000
0001
,  // measure 86
0100
0000
0100
0010
0001
1000
0001
0100
1000
0010
0001
0100
0001
0100
1000
0000
,  // measure 87
0001
0000
0100
0000
0010
0000
0100
0001
1000
0100
0001
0000
0010
0000
0001
0000
,  // measure 88
1000
0001
0100
0010
0001
0100
0001
0100
,  // measure 89
0001
0100
0010
0001
1000
0001
0100
0010
,  // measure 90
0100
0000
0001
1000
0100
0000
0001
0000
1000
0000
0001
0000
0100
0000
0010
0000
,  // measure 91
0001
0100
0001
0100
0010
0001
1000
0001
,  // measure 92
0100
0010
0001
1000
0001
0100
0001
1000
,  // measure 93
0100
0100
0010
0001
1000
0001
0100
0010
,  // measure 94
0001
1000
0001
0100
0010
0001
1000
0001
,  // measure 95
0100
0010
0001
1000
0001
0100
0010
0001
,  // measure 96
1000
0001
0100
0010
0001
1000
0001
0100
,  // measure 97
0010
0001
1000
0001
0100
0010
0001
0100
,  // measure 98
0001
0100
0010
0001
1000
0001
0100
0010
,  // measure 99
0001
1000
0001
0100
0010
0001
1000
0001
,  // measure 100
0100
0010
0001
0100
0001
0100
0010
0001
,  // measure 101
1000
0001
0100
0010
0001
1000
0001
0100
,  // measure 102
0010
0001
1000
0001
0100
0010
0001
0100
,  // measure 103
0001
0100
0010
0001
1000
0001
0100
0010
,  // measure 104
0001
0100
0001
0100
0010
0001
1000
0001
,  // measure 105
0100
0010
0001
1000
0001
0100
0001
0100
,  // measure 106
0010
0001
1000
0001
0100
0010
0001
1000
,  // measure 107
0001
0100
0010
0001
1000
0001
0100
0010
,  // measure 108
0010
0000
0100
0000
0001
0000
0010
0100
0001
0000
0100
0000
0010
0000
1000
0100
,  // measure 109
0001
0000
0100
0000
0001
0000
0010
0000
0100
0000
1000
0100
0001
0000
0010
0000
,  // measure 110
1001
0110
0101
0110
1001
1001
0100
0001
,  // measure 111
0110
0000
0010
0000
1100
0000
0001
0000
0110
0000
1000
0100
0001
0000
1001
0000
,  // measure 112
0110
0000
0000
0000
0000
0000
0001
0100
0001
0000
1000
0000
0100
0000
0010
0000
,  // measure 113
0100
0001
0001
0100
1000
0100
0010
1001
,  // measure 114
1000
0000
0001
0000
0100
0000
0001
0000
0100
0001
0010
0000
0001
0000
0100
0000
,  // measure 115
1000
0000
0100
0000
0010
0000
0100
0001
1000
0100
0001
0000
0001
0000
0100
0000
,  // measure 116
1000
0100
0001
1000
0001
0010
0100
0000
,  // measure 117
0100
0010
0001
1000
0001
0100
1000
0000
,  // measure 118
0100
0010
0001
0100
0001
0100
1000
0000
,  // measure 119
0001
0100
0001
0100
0001
0100
1000
0000
,  // measure 120
0100
0010
0001
1000
0001
0100
1000
0000
,  // measure 121
0001
0100
0010
0001
1000
0001
0100
0000
,  // measure 122
0010
0001
0100
0001
0100
0100
1000
0000
,  // measure 123
0100
0010
0001
1000
0001
0100
0010
0000
,  // measure 124
0001
0100
0001
0100
0001
0100
1000
0000
,  // measure 125
0100
0010
0001
1000
0001
0100
1000
0000
,  // measure 126
0100
0010
0001
0100
0001
1000
0100
0000
;
