#VERSION:0.83;
#TITLE:joey knows;
#SUBTITLE:;
#ARTIST:Dance Arts Center;
#TITLETRANSLIT:;
#SUBTITLETRANSLIT:;
#ARTISTTRANSLIT:;
#GENRE:;
#ORIGIN:;
#CREDIT:;
#BANNER:;
#BACKGROUND:;
#PREVIEWVID:;
#JACKET:;
#CDIMAGE:;
#DISCIMAGE:;
#LYRICSPATH:;
#CDTITLE:;
#MUSIC:dance arts center - joey knows (official music video) [ouGicoAgFZ4].ogg;
#OFFSET:0.000000;
#SAMPLESTART:100.059883;
#SAMPLELENGTH:12.000000;
#SELECTABLE:YES;
#BPMS:0.000=140.000;
#STOPS:0.000=0.100;
#DELAYS:;
#WARPS:;
#TIMESIGNATURES:0.000=4=4;
#TICKCOUNTS:0.000=4;
#COMBOS:0.000=1;
#SPEEDS:0.000=1.000=0.000=0;
#SCROLLS:0.000=1.000;
#FAKES:;
#LABELS:0.000=Song Start;
#BGCHANGES:0.000=dance arts center - joey knows (official music video).mp4=1.000=0=0=1=====,
99999=-nosongbg-=1.000=0=0=0 // don't automatically add -songbackground-
;
#KEYSOUNDS:;
#ATTACKS:
;

//---------------dance-single - ----------------
#NOTEDATA:;
#CHARTNAME:;
#STEPSTYPE:dance-single;
#DESCRIPTION:;
#CHARTSTYLE:;
#DIFFICULTY:Hard;
#METER:12;
#RADARVALUES:0.582546,0.495233,0.054675,0.009112,0.011391,895.000000,883.000000,12.000000,2.000000,0.000000,0.000000,0.000000,0.000000,0.000000,0.582546,0.495233,0.054675,0.009112,0.011391,895.000000,883.000000,12.000000,2.000000,0.000000,0.000000,0.000000,0.000000,0.000000;
#CREDIT:;
#NOTES:
// measure 0
0000
0000
0000
0000
,  // measure 1
0000
0000
0000
0000
,  // measure 2
0000
0000
0000
0000
,  // measure 3
0000
0000
0000
0000
1000
0000
0100
0001
,  // measure 4
0010
0100
0001
0100
1000
0100
0010
0001
,  // measure 5
0100
0001
0100
0010
0100
0010
0001
0100
,  // measure 6
0001
0100
0010
0001
0100
0001
0100
0010
,  // measure 7
0001
1000
0001
0100
0010
0001
0100
0001
,  // measure 8
0100
0010
0001
0100
0001
0100
0010
0001
,  // measure 9
1000
0001
0100
0010
0001
0100
0001
0100
,  // measure 10
0010
0001
0100
0001
0100
0010
0001
1000
,  // measure 11
0001
0100
0010
0001
0100
0001
0100
1000
,  // measure 12
0001
1000
0001
0100
0010
0001
0100
0001
,  // measure 13
0100
0010
0001
0100
0001
0100
0010
0001
,  // measure 14
0100
0001
0100
0010
0001
0100
0001
0100
,  // measure 15
0010
0001
1000
0001
0100
0010
0001
0100
,  // measure 16
0001
0100
0010
0001
1000
0001
0100
0010
,  // measure 17
0001
0100
0001
0100
0010
0001
1000
0001
,  // measure 18
0100
0010
0001
0100
0001
0100
0010
0001
,  // measure 19
0100
0001
0100
0010
0001
1000
0001
0100
,  // measure 20
0010
0001
0100
0001
0100
0010
0001
1000
,  // measure 21
0001
0100
0010
0001
0100
0001
1000
0100
,  // measure 22
0100
0001
1000
0100
0001
0100
0010
0001
,  // measure 23
0100
0010
0001
0100
0001
0100
0010
0001
,  // measure 24
1000
0001
0100
0010
0001
0100
0001
0100
,  // measure 25
0010
0001
0100
0001
0100
1000
0100
0010
,  // measure 26
0001
0100
0001
0100
0001
0100
0010
0001
,  // measure 27
1000
0001
0100
0010
0001
0100
0001
0100
,  // measure 28
1000
0100
0001
0100
0001
1000
0001
0010
,  // measure 29
0100
0001
0100
0001
0010
0100
0001
1000
,  // measure 30
0001
0010
0100
0001
1000
0001
0010
0100
,  // measure 31
0001
0100
0001
0100
0001
0100
0001
0010
,  // measure 32
0100
0001
1000
0001
0010
0100
0001
1000
,  // measure 33
0001
0100
0010
0100
0010
0100
0100
1000
,  // measure 34
0001
1000
0001
0001
1000
0010
0001
0100
,  // measure 35
0010
0001
0100
0001
0100
0010
0001
0100
,  // measure 36
0001
0100
0100
1000
0100
0100
0010
0001
,  // measure 37
0001
0001
0001
0100
0001
0100
0010
0001
,  // measure 38
1000
0001
0100
0010
0001
0100
0001
0100
,  // measure 39
0010
0001
0100
0001
0100
0010
0001
1000
,  // measure 40
0001
0100
0010
0001
0100
0001
0100
0010
,  // measure 41
0001
0100
1000
0100
0100
0100
0100
0010
,  // measure 42
0010
0001
0001
1000
0001
0100
0010
0001
,  // measure 43
0100
0001
0100
0010
0001
1000
0001
0100
,  // measure 44
0010
0000
1000
0000
0100
0001
0100
0001
,  // measure 45
0010
0000
0010
0000
0001
1000
0001
0100
,  // measure 46
1000
0000
0100
0001
0010
0000
0100
0001
,  // measure 47
0100
0010
0001
0100
1000
0000
0001
1000
,  // measure 48
1001
0000
0100
0001
1001
0000
0100
0010
,  // measure 49
1001
0000
0010
0001
0101
0000
1000
0000
,  // measure 50
0100
0010
0100
0001
0100
0000
0010
0100
,  // measure 51
0001
0010
0001
0100
1000
0001
0100
0000
,  // measure 52
0100
0010
0001
0100
0010
0001
1000
0001
,  // measure 53
0100
0010
0001
0100
0001
0100
0010
0001
,  // measure 54
1000
0001
0100
0010
0001
0100
0001
0100
,  // measure 55
1000
0000
0000
0000
0000
0000
0001
0010
0000
0100
0000
0001
0000
0010
0000
0000
,  // measure 56
0010
0001
0100
1000
0001
0100
0001
0100
,  // measure 57
0010
0001
0100
0001
0100
0010
0001
1000
,  // measure 58
0001
0100
0010
0001
0100
0001
0100
0010
,  // measure 59
0001
0100
0001
0100
0010
0001
1000
0001
,  // measure 60
0100
0010
0001
0100
0001
0100
0010
0001
,  // measure 61
0100
0001
0100
0010
0001
1000
0001
0100
,  // measure 62
0010
0001
0100
0001
0100
0010
0001
1000
,  // measure 63
0001
0100
0001
0100
0010
0001
0100
0001
,  // measure 64
0100
0010
0001
0100
0001
0100
1000
0100
,  // measure 65
0010
0100
0010
0010
0010
0010
0001
1000
,  // measure 66
0001
0100
0010
0001
0100
0001
0100
0010
,  // measure 67
0001
1000
0001
0100
0010
0001
0100
0001
,  // measure 68
0100
0010
0001
0100
0001
0100
0010
0001
,  // measure 69
1000
0001
0100
0010
0001
0100
0001
0100
,  // measure 70
0010
0001
1000
0001
0100
0010
0001
0100
,  // measure 71
0001
0100
0010
0001
1000
0001
0100
0010
,  // measure 72
1000
0000
0100
0001
0100
0000
0100
0000
,  // measure 73
0100
0000
0100
0000
0001
0000
1000
0000
0100
0000
0000
0000
0100
0000
1000
0001
,  // measure 74
0100
0000
0100
0001
1000
0000
0010
0001
,  // measure 75
0100
0000
0010
0100
0001
0000
0001
0100
,  // measure 76
1000
0010
0001
0100
0010
0001
0100
0001
,  // measure 77
0100
0010
0001
1000
0001
0100
0010
0001
,  // measure 78
0100
0001
0100
0010
0001
1000
0001
0100
,  // measure 79
0010
0001
1000
0001
0100
0000
0001
0100
,  // measure 80
2000
0000
0000
0000
,  // measure 81
0000
0000
0000
0000
,  // measure 82
0000
0000
0000
0000
,  // measure 83
0000
0000
3000
0000
1000
0000
0010
0200
,  // measure 84
0000
0000
0000
0000
,  // measure 85
0000
0000
0000
0000
,  // measure 86
0000
0000
0000
0000
,  // measure 87
0000
0000
0000
0300
1000
0000
0100
0010
,  // measure 88
0100
0001
0100
0010
,  // measure 89
0001
1000
0001
0100
,  // measure 90
0010
0001
0100
0001
,  // measure 91
0100
0000
0010
0000
0010
0000
0001
0100
,  // measure 92
1001
1000
0110
0010
,  // measure 93
0110
0001
0110
1000
,  // measure 94
0110
0001
0110
1000
,  // measure 95
0110
0010
0101
0100
,  // measure 96
0100
0010
0001
0100
0001
0100
0001
1000
,  // measure 97
0001
0100
0010
0001
0100
0001
0100
0001
,  // measure 98
0100
0010
0100
0010
0001
1000
0001
0100
,  // measure 99
0010
0001
0100
0001
0100
0010
0001
1000
,  // measure 100
0001
0100
0010
0001
0100
0001
0100
0010
,  // measure 101
0001
0100
0001
0100
1000
0100
0010
0100
,  // measure 102
0010
0100
0001
0100
0010
0001
0100
1000
,  // measure 103
0100
0010
0100
0001
0100
0010
0001
0100
,  // measure 104
0001
0100
0001
0100
1000
0100
0010
0100
,  // measure 105
0001
0100
0010
0001
1000
0001
0100
0010
,  // measure 106
0001
0100
0001
0100
0001
0100
0010
0001
,  // measure 107
1000
0001
0100
0010
0001
0100
0001
0100
,  // measure 108
0010
0001
1000
0001
0100
0010
0001
0100
,  // measure 109
0001
0100
0010
0001
0100
0001
0100
0010
,  // measure 110
0001
1000
0001
0100
0010
0001
0100
0001
,  // measure 111
0100
0010
0001
1000
0001
0100
0010
0001
,  // measure 112
0100
0001
0100
0010
0001
1000
0001
0100
,  // measure 113
0010
0001
0100
0001
0100
0010
0001
1000
,  // measure 114
0001
0100
0010
0001
0100
0001
0100
0010
,  // measure 115
0100
0100
0100
1000
1000
1000
0100
0010
,  // measure 116
0100
0001
0100
0001
0010
0100
0100
0001
,  // measure 117
0100
0001
0100
0001
0100
0010
0001
0100
,  // measure 118
0001
0100
1000
0001
0100
0010
0001
0100
,  // measure 119
0001
0100
0010
0001
0100
0001
0100
0010
,  // measure 120
0001
0100
0001
0100
0010
0001
1000
0001
,  // measure 121
0100
0010
0001
0100
0001
0100
0010
0001
,  // measure 122
1000
0001
0100
0010
0001
0100
0001
0100
,  // measure 123
0010
0001
1000
0001
0100
0010
0001
0100
,  // measure 124
0001
0100
0010
0001
0100
0001
0100
0010
,  // measure 125
0001
0100
0001
0100
0010
0001
1000
0001
,  // measure 126
0100
0010
0001
0100
0001
0100
0010
0001
,  // measure 127
1000
0001
0100
0010
0100
0001
0100
1000
;
