#VERSION:0.83;
#TITLE:its me;
#SUBTITLE:;
#ARTIST:ILLIT;
#TITLETRANSLIT:;
#SUBTITLETRANSLIT:;
#ARTISTTRANSLIT:;
#GENRE:;
#ORIGIN:;
#CREDIT:;
#BANNER:;
#BACKGROUND:;
#PREVIEWVID:;
#JACKET:;
#CDIMAGE:;
#DISCIMAGE:;
#LYRICSPATH:;
#CDTITLE:;
#MUSIC:ILLIT 'It's Me' (Color Coded Lyrics).ogg;
#OFFSET:0.000000;
#SAMPLESTART:100.059883;
#SAMPLELENGTH:12.000000;
#SELECTABLE:YES;
#BPMS:0.000=147.000;
#STOPS:0.000=0.400;
#DELAYS:;
#WARPS:;
#TIMESIGNATURES:0.000=4=4;
#TICKCOUNTS:0.000=4;
#COMBOS:0.000=1;
#SPEEDS:0.000=1.000=0.000=0;
#SCROLLS:0.000=1.000;
#FAKES:;
#LABELS:0.000=Song Start;
#BGCHANGES:;
#KEYSOUNDS:;
#ATTACKS:
;

//---------------dance-single - ----------------
#NOTEDATA:;
#CHARTNAME:;
#STEPSTYPE:dance-single;
#DESCRIPTION:;
#CHARTSTYLE:;
#DIFFICULTY:Hard;
#METER:14;
#RADARVALUES:0.644068,0.697046,0.051822,0.000000,0.288720,609.000000,602.000000,7.000000,0.000000,0.000000,0.000000,0.000000,0.000000,0.000000,0.644068,0.697046,0.051822,0.000000,0.288720,609.000000,602.000000,7.000000,0.000000,0.000000,0.000000,0.000000,0.000000,0.000000;
#CREDIT:;
#NOTES:
// measure 0
0000
0000
0000
0000
,  // measure 1
0000
0000
0000
0000
,  // measure 2
0000
0000
0000
0000
,  // measure 3
0000
0000
0000
0000
,  // measure 4
0010
0100
0010
0100
0001
0100
0001
0000
,  // measure 5
0100
0010
0001
0100
0001
0100
1000
0000
,  // measure 6
0010
0001
0100
0010
0001
1000
0100
0000
,  // measure 7
0100
0000
0100
0000
0001
0100
0001
0100
,  // measure 8
0010
0010
0001
0100
0001
0100
1000
0000
,  // measure 9
0100
0010
0001
0100
0001
0100
1000
0010
,  // measure 10
0100
0010
0001
1000
0001
0100
0010
0000
,  // measure 11
0100
0000
0000
0010
0000
0000
0100
0001
0100
0001
0010
0000
0100
0000
0001
0000
,  // measure 12
1000
0000
0001
0100
0010
0000
0100
0010
,  // measure 13
0001
0100
0001
0100
1000
0000
0100
0001
,  // measure 14
0010
0000
0100
0010
0001
0100
0010
0001
,  // measure 15
1000
0001
0100
0010
0000
0000
0100
0001
,  // measure 16
1000
0000
0100
0001
0100
0000
0100
0010
,  // measure 17
0001
1000
0001
0100
0010
0000
0001
0100
,  // measure 18
0010
0000
0100
0001
1000
0001
0010
0100
,  // measure 19
0001
0100
0001
0010
0100
0001
0100
0001
,  // measure 20
1000
0000
0000
0100
0001
0010
0000
0000
0010
0000
0100
0000
0001
0000
1000
0000
,  // measure 21
0100
0000
0000
0010
0100
0001
0000
0000
0010
0000
0001
0000
1000
0000
0100
0000
,  // measure 22
0100
0000
0000
0001
0100
0010
0000
0000
0100
0000
0010
0000
0001
0000
0100
0000
,  // measure 23
0100
0000
0000
0010
0000
0000
0001
0000
0110
0000
0000
0000
0110
0000
0000
0000
,  // measure 24
0100
0000
0000
0010
0100
0001
0000
0000
0010
0000
0001
0000
1000
0000
0100
0000
,  // measure 25
0010
0000
0000
0100
0001
0010
0000
0000
0100
0000
0001
0000
0100
0000
0001
0000
,  // measure 26
0010
0000
0000
0100
0001
0010
0000
0000
0001
0000
0100
0000
0001
0000
0100
0000
,  // measure 27
0010
0000
0010
0000
0010
0100
0110
0000
,  // measure 28
0010
0000
0000
0100
0000
0000
0001
0010
0000
0000
0000
0000
0001
0000
0000
0000
,  // measure 29
0010
0000
0000
0001
0000
0000
0010
0100
0000
0000
0001
0000
0010
0000
0000
0000
,  // measure 30
0010
0000
0001
0100
0010
0000
0001
0000
0100
0000
0001
0000
0100
0000
0010
0000
,  // measure 31
1000
0000
0100
0001
0010
0000
1000
0000
0100
0000
0010
0000
0100
0000
0010
0000
,  // measure 32
0100
0000
0010
0001
0100
0000
0010
0000
0001
0000
0100
0000
0001
0000
0100
0000
,  // measure 33
0010
0000
0001
1000
0100
0000
0100
0000
0010
0000
0001
0000
0100
0000
0001
0000
,  // measure 34
0100
0000
0010
0001
0100
0000
0010
0000
0100
0000
0010
0000
0100
0000
0001
0000
,  // measure 35
0100
0000
0010
0001
0100
0000
0010
0000
0001
0000
0100
0000
0001
0000
0100
0000
,  // measure 36
0010
0000
0001
0100
1000
0000
0001
0000
1000
0000
0001
0000
0100
0000
0010
0000
,  // measure 37
0100
0000
0000
0010
0000
0000
0100
0001
1000
0001
0010
0000
0100
0000
0010
0000
,  // measure 38
1000
0000
0001
0010
0100
0001
0100
0000
0010
0000
0000
0000
0000
0000
0001
0000
,  // measure 39
0010
0001
1000
0001
0010
0000
0000
0000
,  // measure 40
0100
0010
0001
0100
0010
0001
0100
0001
,  // measure 41
0100
0010
0001
0100
0010
0001
0100
0001
,  // measure 42
0100
0010
0001
1000
0001
0100
0010
0001
,  // measure 43
0100
0000
0001
0000
0100
0000
0010
0000
0001
0000
0100
0010
0001
0000
0100
0000
,  // measure 44
1000
0010
0100
0010
0001
0100
0001
0100
,  // measure 45
0010
0001
0100
0010
0001
1000
0001
0100
,  // measure 46
0010
0100
0010
0001
0100
0001
0100
0010
,  // measure 47
0100
0000
0000
0010
0000
0000
0100
0001
1000
0001
0010
0000
0100
0000
0010
0000
,  // measure 48
0010
0000
0001
1000
0100
0000
0100
0010
,  // measure 49
0001
0100
0001
0100
1000
0000
0001
0010
,  // measure 50
0100
0000
0010
0001
0100
0001
0100
0010
,  // measure 51
0001
1000
0001
0100
0001
0010
0100
0000
,  // measure 52
0100
0000
0010
0100
0001
0000
1000
0100
,  // measure 53
0001
0100
0001
1000
0001
0000
0010
0100
,  // measure 54
0010
0000
0010
0001
0100
0010
0001
0100
,  // measure 55
0001
0100
0010
0001
1000
0001
0100
0010
,  // measure 56
1000
0000
0000
0100
0001
0010
0000
0000
0100
0000
0001
0000
0100
0000
0001
0000
,  // measure 57
0100
0000
0000
0010
0100
0001
0000
0000
1000
0000
0100
0000
0001
0000
0010
0000
,  // measure 58
0100
0000
0000
0100
0010
0001
0000
0000
0010
0000
0001
0000
0100
0000
0010
0000
,  // measure 59
0100
0000
0000
0010
0000
0000
0100
0000
0110
0000
0000
0000
0110
0000
0000
0000
,  // measure 60
0010
0000
0000
0001
1000
0100
0000
0000
0010
0000
0001
0000
0100
0000
1000
0000
,  // measure 61
0100
0000
0000
0010
0001
0100
0000
0000
0010
0000
0001
0000
1000
0000
0100
0000
,  // measure 62
0100
0000
0000
0010
0100
0001
0000
0000
1000
0000
0100
0000
0001
0000
0010
0000
,  // measure 63
0100
0100
0100
0100
,  // measure 64
0100
0000
0000
0010
0000
0000
0100
0001
0000
0000
1000
0000
0000
0000
0000
0000
,  // measure 65
0010
0000
0000
0001
0000
0000
0100
0010
0000
0000
0100
0000
0001
0000
0000
0000
,  // measure 66
0010
0000
0100
0001
0010
0000
0100
0000
0001
0000
1000
0000
0001
0000
0010
0000
,  // measure 67
0100
0000
0010
0100
0001
0000
0010
0000
0001
0000
1000
0000
0001
0000
0100
0000
,  // measure 68
0010
0000
0100
0001
0010
0000
0100
0000
0010
0000
0100
0000
0001
0000
0100
0000
,  // measure 69
0010
0000
0001
1000
0100
0000
0010
0000
0011
0000
0000
0000
1001
0000
0000
0000
,  // measure 70
0100
0000
0010
0100
0001
0000
1000
0000
0100
0000
0001
0000
0100
0000
0001
0000
,  // measure 71
0010
0000
0100
0010
0001
0000
0010
0000
0001
0000
0100
0000
1000
0000
0010
0000
,  // measure 72
0001
0000
0100
0001
0010
0000
0001
0000
0100
0000
1000
0000
0001
0000
0010
0000
,  // measure 73
0100
0000
0000
0010
0000
0000
0100
0001
0010
0100
0001
0000
0100
0000
0010
0000
,  // measure 74
0100
0000
0010
0100
0001
1000
0001
0000
0010
0000
0100
0000
0001
0000
0100
0000
,  // measure 75
0001
0000
0100
0010
0001
1000
0100
0000
0001
0000
0010
0000
0100
0000
0001
0000
,  // measure 76
0010
0000
0001
0100
0001
1000
0100
0000
0100
0000
0010
0000
0001
0000
0100
0000
,  // measure 77
0001
0100
0010
0001
0100
0001
1000
0100
,  // measure 78
0010
0000
0100
0001
1000
0001
0010
0000
0100
0000
0001
0000
0100
0000
0001
0000
,  // measure 79
0010
0000
0001
0100
0010
0100
0001
0000
0100
0000
1000
0000
0010
0000
0100
0000
,  // measure 80
0001
0000
0010
0100
0001
1000
0100
0000
0010
0000
0001
0000
0100
0000
0010
0000
,  // measure 81
0100
0000
0000
0010
0000
0000
0001
1000
0001
0100
0010
0000
0001
0000
0100
0000
;
