#TITLE:iphone;
#SUBTITLE:;
#ARTIST:Rico Nasty;
#TITLETRANSLIT:;
#SUBTITLETRANSLIT:;
#ARTISTTRANSLIT:;
#GENRE:;
#CREDIT:;
#BANNER:;
#BACKGROUND:;
#LYRICSPATH:;
#CDTITLE:;
#MUSIC:Rico Nasty - IPHONE [Official Music Video].ogg;
#OFFSET:0.000000;
#SAMPLESTART:100.059883;
#SAMPLELENGTH:12.000000;
#SELECTABLE:YES;
#BPMS:0.000000=148.000000
,64.000000=149.000000
,160.000000=148.000000
;
#STOPS:0.000000=0.100000
;
#BGCHANGES:0.000=Rico Nasty - IPHONE [Official Music Video].mp4=1.000=0=0=1=====,
99999=-nosongbg-=1.000=0=0=0 // don't automatically add -songbackground-
;
#KEYSOUNDS:;
#ATTACKS:;

//---------------dance-single - ----------------
#NOTES:
     dance-single:
     :
     Hard:
     11:
     0.491190,0.609265,0.623434,0.251892,0.097608,546.000000,447.000000,99.000000,40.000000,0.000000,0.000000,0.491190,0.609265,0.623434,0.251892,0.097608,546.000000,447.000000,99.000000,40.000000,0.000000,0.000000:
// measure 0
0000
0000
0000
0000
,  // measure 1
0000
0000
0000
0000
,  // measure 2
0000
0000
0000
0000
,  // measure 3
0000
0000
0000
0000
,  // measure 4
1001
0000
0000
1001
0000
0000
2002
0000
,  // measure 5
0000
0000
0000
3003
,  // measure 6
0110
0000
0000
0101
0000
0000
2200
0000
,  // measure 7
0000
0000
0000
3300
,  // measure 8
0101
0000
0000
0110
0000
0000
0220
0000
,  // measure 9
0000
0000
0000
0330
,  // measure 10
1001
0000
0000
1001
0000
0000
2002
0000
,  // measure 11
0000
3003
0220
0330
,  // measure 12
0101
0000
0000
0101
0000
0000
0202
0000
,  // measure 13
0000
0000
0000
0303
,  // measure 14
1100
0000
0000
1100
0000
0000
1100
0000
,  // measure 15
0220
0000
0000
0330
,  // measure 16
0101
0000
0000
0101
0000
0000
0101
0000
,  // measure 17
0000
0000
0000
0000
,  // measure 18
1100
0000
0000
1100
0000
0000
1100
0000
,  // measure 19
0000
0000
0000
0000
,  // measure 20
0110
0000
0000
0110
0000
0000
0110
0000
,  // measure 21
0000
0000
0000
0000
,  // measure 22
0101
0000
0000
0101
0000
0000
0101
0000
,  // measure 23
0000
0000
0000
0000
,  // measure 24
0110
0000
0001
0100
0001
0000
1000
0100
,  // measure 25
0001
0000
0100
0010
1001
0000
1001
0000
,  // measure 26
0010
0100
0001
1000
0001
0100
1000
0000
,  // measure 27
0010
0100
0001
1000
0001
0000
0010
0000
,  // measure 28
0100
0010
0001
0100
0001
0100
1000
0000
,  // measure 29
0010
0100
0001
1000
0001
0000
0010
0000
,  // measure 30
0100
0010
0000
0100
0001
0000
0100
0000
,  // measure 31
0010
0000
0001
0000
0100
0000
0001
0000
1000
0010
0000
0000
0100
0010
0000
0000
,  // measure 32
1001
0100
0001
0100
1000
0000
0001
1000
,  // measure 33
0001
0100
0010
0200
0000
0300
0010
0001
,  // measure 34
0100
0000
0010
0001
0100
0010
0001
1000
,  // measure 35
0001
0100
0010
0002
0000
0003
0100
0001
,  // measure 36
1000
0001
0010
0100
0001
0000
0010
0100
,  // measure 37
0001
1000
0001
0020
0000
0030
0100
0001
,  // measure 38
1000
0010
0001
1000
0001
0000
0100
0000
,  // measure 39
0010
0100
0001
2000
0000
0000
0000
0000
,  // measure 40
0000
3000
0100
0000
0001
0000
0010
0100
,  // measure 41
0001
1000
0001
0010
0110
0000
0101
0000
,  // measure 42
0010
0001
0100
0010
1100
0000
0010
0001
,  // measure 43
0100
0001
0010
0100
1001
0000
1001
0000
,  // measure 44
1000
0000
0001
0000
0001
0100
1000
0000
,  // measure 45
0001
0100
0001
0100
1001
0000
0101
0000
,  // measure 46
0010
0100
0001
1000
0001
0000
0010
0100
,  // measure 47
0001
1000
0001
0010
0100
0000
0101
0000
,  // measure 48
0002
2000
0000
3003
,  // measure 49
0010
0000
0000
0001
0000
0000
0100
0000
0010
0000
0000
0001
0000
0000
0100
0000
,  // measure 50
0020
0200
0000
0330
,  // measure 51
0010
0000
0000
0001
0000
0000
0100
0000
0010
0000
0000
0001
0000
0000
0100
0000
,  // measure 52
0200
0020
0000
0330
,  // measure 53
0001
0000
0000
1000
0000
0000
0100
0000
0001
0000
0000
0010
0000
0000
0100
0000
,  // measure 54
0002
2000
0000
3003
,  // measure 55
0010
0000
0000
0000
0100
0000
0000
0000
0001
0000
0000
1000
0000
0100
0001
0000
,  // measure 56
0100
0000
0000
0000
0010
0000
0000
0000
0010
0000
0100
0001
0000
1000
0100
0000
,  // measure 57
0001
0000
0000
0000
0100
0000
0000
0000
0010
0000
0100
0001
0000
1000
0100
0000
,  // measure 58
0010
0000
0000
0000
0100
0000
0000
0000
0010
0000
0100
0001
0000
1000
0100
0000
,  // measure 59
0100
0000
0000
0000
0010
0000
0000
0000
1000
0100
0000
0001
0000
0010
0100
0000
,  // measure 60
0001
0000
0000
0010
0000
0000
0100
0010
0100
0001
0100
0001
,  // measure 61
0010
0000
0000
0010
0000
0000
1000
0100
0001
0100
0001
0010
,  // measure 62
0100
0000
0000
0000
0010
0000
0000
0100
0001
0010
0000
0100
0000
0001
0010
0000
,  // measure 63
0100
0010
0100
0001
1000
0001
0100
0010
,  // measure 64
1001
0000
0000
0010
0100
0001
1000
0001
,  // measure 65
0110
0000
0000
0001
1000
0001
0100
0010
,  // measure 66
1001
0000
0000
0001
0010
1000
0001
0100
,  // measure 67
0011
0000
0000
0001
1000
0001
0100
0010
,  // measure 68
1001
0000
0000
1000
0001
0001
0100
0010
,  // measure 69
1001
0000
0000
0010
0001
0100
1000
0000
,  // measure 70
0110
0000
0000
0100
0001
1000
0001
0100
,  // measure 71
0010
2002
0000
3003
,  // measure 72
1001
1001
1001
0000
0101
0100
0010
1000
,  // measure 73
0001
0010
0100
0010
1001
0000
1001
0000
,  // measure 74
0001
1000
0001
0100
0001
0000
0100
0001
,  // measure 75
0010
0100
0010
0100
1001
0000
1001
0000
,  // measure 76
0100
0000
1000
0000
0001
0100
0010
0000
,  // measure 77
1000
0001
0100
0010
0101
0000
1001
0000
,  // measure 78
0100
1000
0001
0100
0010
0000
0100
0010
,  // measure 79
0001
1000
0001
0001
0100
0000
0010
0000
,  // measure 80
1001
1001
1001
0000
0110
0000
0001
0100
,  // measure 81
1000
0001
0100
0010
1100
0000
0101
0000
,  // measure 82
0010
0001
0100
0001
0100
0000
0010
0001
,  // measure 83
1000
0001
0100
0010
0101
0000
1001
0000
,  // measure 84
0100
0000
0010
0000
0001
0100
1000
0000
,  // measure 85
0010
0100
0010
0100
0101
0000
0110
0000
,  // measure 86
0001
1000
0001
0100
0010
0000
0100
0010
,  // measure 87
0001
0010
0100
0010
0100
0000
1000
0000
,  // measure 88
0110
0000
0101
0000
1100
0000
0100
0010
,  // measure 89
0220
0330
2002
3003
,  // measure 90
0011
0000
0110
0000
0101
0000
1000
0100
,  // measure 91
0101
0101
0110
0101
,  // measure 92
0110
0000
0101
0000
0101
0000
1000
0100
,  // measure 93
0202
0303
0220
0330
,  // measure 94
0110
0000
0101
0000
0101
0000
0100
0010
,  // measure 95
0110
0110
1100
0101
,  // measure 96
0202
0000
0303
2200
0000
3300
0110
0000
;
